  0
SECTION
  2
HEADER
  9
$ACADVER
  1
AC1018
  9
$ACADMAINTVER
 70
   104
  9
$DWGCODEPAGE
  3
ANSI_936
  9
$LASTSAVEDBY
  1
Administrator
  9
$INSBASE
 10
0.0
 20
0.0
 30
0.0
  9
$EXTMIN
 10
1387.142187048603
 20
-413.6882161469953
 30
0.0
  9
$EXTMAX
 10
1426.082740550393
 20
-339.6857849648415
 30
0.0
  9
$LIMMIN
 10
0.0
 20
0.0
  9
$LIMMAX
 10
12.0
 20
9.0
  9
$ORTHOMODE
 70
     1
  9
$REGENMODE
 70
     1
  9
$FILLMODE
 70
     1
  9
$QTEXTMODE
 70
     0
  9
$MIRRTEXT
 70
     0
  9
$LTSCALE
 40
1.0
  9
$ATTMODE
 70
     1
  9
$TEXTSIZE
 40
0.2
  9
$TRACEWID
 40
0.05
  9
$TEXTSTYLE
  7
STANDARD
  9
$CLAYER
  8
标注
  9
$CELTYPE
  6
ByLayer
  9
$CECOLOR
 62
   256
  9
$CELTSCALE
 40
1.0
  9
$DISPSILH
 70
     0
  9
$DIMSCALE
 40
1.0
  9
$DIMASZ
 40
0.65
  9
$DIMEXO
 40
0.88
  9
$DIMDLI
 40
0.015
  9
$DIMRND
 40
0.0
  9
$DIMDLE
 40
0.0
  9
$DIMEXE
 40
0.32
  9
$DIMTP
 40
0.0
  9
$DIMTM
 40
0.0
  9
$DIMTXT
 40
0.65
  9
$DIMCEN
 40
0.09
  9
$DIMTSZ
 40
0.0
  9
$DIMTOL
 70
     0
  9
$DIMLIM
 70
     0
  9
$DIMTIH
 70
     0
  9
$DIMTOH
 70
     0
  9
$DIMSE1
 70
     0
  9
$DIMSE2
 70
     0
  9
$DIMTAD
 70
     0
  9
$DIMZIN
 70
     8
  9
$DIMBLK
  1

  9
$DIMASO
 70
     1
  9
$DIMSHO
 70
     1
  9
$DIMPOST
  1
"
  9
$DIMAPOST
  1
"
  9
$DIMALT
 70
     0
  9
$DIMALTD
 70
     1
  9
$DIMALTF
 40
0.03937
  9
$DIMLFAC
 40
1.0
  9
$DIMTOFL
 70
     1
  9
$DIMTVP
 40
0.0
  9
$DIMTIX
 70
     0
  9
$DIMSOXD
 70
     0
  9
$DIMSAH
 70
     0
  9
$DIMBLK1
  1

  9
$DIMBLK2
  1

  9
$DIMSTYLE
  2
副本STANDARD
  9
$DIMCLRD
 70
   256
  9
$DIMCLRE
 70
   256
  9
$DIMCLRT
 70
   256
  9
$DIMTFAC
 40
1.0
  9
$DIMGAP
 40
0.3
  9
$DIMJUST
 70
     0
  9
$DIMSD1
 70
     0
  9
$DIMSD2
 70
     0
  9
$DIMTOLJ
 70
     1
  9
$DIMTZIN
 70
     8
  9
$DIMALTZ
 70
     8
  9
$DIMALTTZ
 70
     8
  9
$DIMUPT
 70
     0
  9
$DIMDEC
 70
     3
  9
$DIMTDEC
 70
     3
  9
$DIMALTU
 70
     2
  9
$DIMALTTD
 70
     1
  9
$DIMTXSTY
  7
STANDARD
  9
$DIMAUNIT
 70
     0
  9
$DIMADEC
 70
     0
  9
$DIMALTRND
 40
0.0
  9
$DIMAZIN
 70
     0
  9
$DIMDSEP
 70
    46
  9
$DIMATFIT
 70
     3
  9
$DIMFRAC
 70
     2
  9
$DIMLDRBLK
  1

  9
$DIMLUNIT
 70
     5
  9
$DIMLWD
 70
    -2
  9
$DIMLWE
 70
    -2
  9
$DIMTMOVE
 70
     2
  9
$LUNITS
 70
     2
  9
$LUPREC
 70
     4
  9
$SKETCHINC
 40
0.1
  9
$FILLETRAD
 40
10.0
  9
$AUNITS
 70
     0
  9
$AUPREC
 70
     0
  9
$MENU
  1
.
  9
$ELEVATION
 40
0.0
  9
$PELEVATION
 40
0.0
  9
$THICKNESS
 40
0.0
  9
$LIMCHECK
 70
     0
  9
$CHAMFERA
 40
0.0
  9
$CHAMFERB
 40
0.0
  9
$CHAMFERC
 40
0.0
  9
$CHAMFERD
 40
0.0
  9
$SKPOLY
 70
     0
  9
$TDCREATE
 40
2455434.724808658
  9
$TDUCREATE
 40
2455434.391475324
  9
$TDUPDATE
 40
2458690.459084341
  9
$TDUUPDATE
 40
2458690.125751007
  9
$TDINDWG
 40
0.5815731019
  9
$TDUSRTIMER
 40
0.5815557870
  9
$USRTIMER
 70
     1
  9
$ANGBASE
 50
0.0
  9
$ANGDIR
 70
     0
  9
$PDMODE
 70
     0
  9
$PDSIZE
 40
0.0
  9
$PLINEWID
 40
0.0
  9
$SPLFRAME
 70
     0
  9
$SPLINETYPE
 70
     6
  9
$SPLINESEGS
 70
     8
  9
$HANDSEED
  5
7AFA
  9
$SURFTAB1
 70
     6
  9
$SURFTAB2
 70
     6
  9
$SURFTYPE
 70
     6
  9
$SURFU
 70
     6
  9
$SURFV
 70
     6
  9
$UCSBASE
  2

  9
$UCSNAME
  2

  9
$UCSORG
 10
0.0
 20
0.0
 30
0.0
  9
$UCSXDIR
 10
1.0
 20
0.0
 30
0.0
  9
$UCSYDIR
 10
0.0
 20
1.0
 30
0.0
  9
$UCSORTHOREF
  2

  9
$UCSORTHOVIEW
 70
     0
  9
$UCSORGTOP
 10
0.0
 20
0.0
 30
0.0
  9
$UCSORGBOTTOM
 10
0.0
 20
0.0
 30
0.0
  9
$UCSORGLEFT
 10
0.0
 20
0.0
 30
0.0
  9
$UCSORGRIGHT
 10
0.0
 20
0.0
 30
0.0
  9
$UCSORGFRONT
 10
0.0
 20
0.0
 30
0.0
  9
$UCSORGBACK
 10
0.0
 20
0.0
 30
0.0
  9
$PUCSBASE
  2

  9
$PUCSNAME
  2

  9
$PUCSORG
 10
0.0
 20
0.0
 30
0.0
  9
$PUCSXDIR
 10
1.0
 20
0.0
 30
0.0
  9
$PUCSYDIR
 10
0.0
 20
1.0
 30
0.0
  9
$PUCSORTHOREF
  2

  9
$PUCSORTHOVIEW
 70
     0
  9
$PUCSORGTOP
 10
0.0
 20
0.0
 30
0.0
  9
$PUCSORGBOTTOM
 10
0.0
 20
0.0
 30
0.0
  9
$PUCSORGLEFT
 10
0.0
 20
0.0
 30
0.0
  9
$PUCSORGRIGHT
 10
0.0
 20
0.0
 30
0.0
  9
$PUCSORGFRONT
 10
0.0
 20
0.0
 30
0.0
  9
$PUCSORGBACK
 10
0.0
 20
0.0
 30
0.0
  9
$USERI1
 70
     0
  9
$USERI2
 70
     0
  9
$USERI3
 70
     0
  9
$USERI4
 70
     0
  9
$USERI5
 70
     0
  9
$USERR1
 40
0.0
  9
$USERR2
 40
0.0
  9
$USERR3
 40
0.0
  9
$USERR4
 40
0.0
  9
$USERR5
 40
2.5
  9
$WORLDVIEW
 70
     1
  9
$SHADEDGE
 70
     3
  9
$SHADEDIF
 70
    70
  9
$TILEMODE
 70
     1
  9
$MAXACTVP
 70
    64
  9
$PINSBASE
 10
0.0
 20
0.0
 30
0.0
  9
$PLIMCHECK
 70
     0
  9
$PEXTMIN
 10
1.000000000000000E+20
 20
1.000000000000000E+20
 30
1.000000000000000E+20
  9
$PEXTMAX
 10
-1.000000000000000E+20
 20
-1.000000000000000E+20
 30
-1.000000000000000E+20
  9
$PLIMMIN
 10
0.0
 20
0.0
  9
$PLIMMAX
 10
12.0
 20
9.0
  9
$UNITMODE
 70
     0
  9
$VISRETAIN
 70
     1
  9
$PLINEGEN
 70
     0
  9
$PSLTSCALE
 70
     1
  9
$TREEDEPTH
 70
  3020
  9
$CMLSTYLE
  2
Standard
  9
$CMLJUST
 70
     0
  9
$CMLSCALE
 40
1.0
  9
$PROXYGRAPHICS
 70
     1
  9
$MEASUREMENT
 70
     0
  9
$CELWEIGHT
370
    -1
  9
$ENDCAPS
280
     0
  9
$JOINSTYLE
280
     0
  9
$LWDISPLAY
290
     0
  9
$INSUNITS
 70
     0
  9
$HYPERLINKBASE
  1

  9
$STYLESHEET
  1

  9
$XEDIT
290
     1
  9
$CEPSNTYPE
380
     0
  9
$PSTYLEMODE
290
     1
  9
$FINGERPRINTGUID
  2
{7BAC09DB-C4D0-41DB-8C07-4C6808ADD930}
  9
$VERSIONGUID
  2
{B74CE5B9-3554-4DF4-8AAC-8FAF1602A7D7}
  9
$EXTNAMES
290
     1
  9
$PSVPSCALE
 40
0.0
  9
$OLESTARTUP
290
     0
  9
$SORTENTS
280
   127
  9
$INDEXCTL
280
     0
  9
$HIDETEXT
280
     0
  9
$XCLIPFRAME
290
     0
  9
$HALOGAP
280
     0
  9
$OBSCOLOR
 70
   257
  9
$OBSLTYPE
280
     0
  9
$INTERSECTIONDISPLAY
280
     0
  9
$INTERSECTIONCOLOR
 70
   257
  9
$DIMASSOC
280
     1
  9
$PROJECTNAME
  1

  0
ENDSEC
  0
SECTION
  2
CLASSES
  0
CLASS
  1
ACDBDICTIONARYWDFLT
  2
AcDbDictionaryWithDefault
  3
ObjectDBX Classes
 90
        0
 91
        1
280
     0
281
     0
  0
CLASS
  1
MATERIAL
  2
AcDbMaterial
  3
ObjectDBX Classes
 90
     1024
 91
        3
280
     0
281
     0
  0
CLASS
  1
VISUALSTYLE
  2
AcDbVisualStyle
  3
ObjectDBX Classes
 90
     4095
 91
       16
280
     0
281
     0
  0
CLASS
  1
SCALE
  2
AcDbScale
  3
ObjectDBX Classes
 90
     1153
 91
       33
280
     0
281
     0
  0
CLASS
  1
TABLESTYLE
  2
AcDbTableStyle
  3
ObjectDBX Classes
 90
     4095
 91
        1
280
     0
281
     0
  0
CLASS
  1
MLEADERSTYLE
  2
AcDbMLeaderStyle
  3
ACDB_MLEADERSTYLE_CLASS
 90
     4095
 91
        1
280
     0
281
     0
  0
CLASS
  1
VLO-VL
  2
vlo_VL
  3
VL|AutoLISP based application
 90
      129
 91
        1
280
     0
281
     0
  0
CLASS
  1
DICTIONARYVAR
  2
AcDbDictionaryVar
  3
ObjectDBX Classes
 90
        0
 91
        6
280
     0
281
     0
  0
CLASS
  1
CELLSTYLEMAP
  2
AcDbCellStyleMap
  3
ObjectDBX Classes
 90
     1152
 91
        1
280
     0
281
     0
  0
CLASS
  1
DIMASSOC
  2
AcDbDimAssoc
  3
"AcDbDimAssoc|Product Desc:     AcDim ARX App For Dimension|Company:          Autodesk, Inc.|WEB Address:      www.autodesk.com"
 90
        0
 91
        0
280
     0
281
     0
  0
CLASS
  1
SORTENTSTABLE
  2
AcDbSortentsTable
  3
ObjectDBX Classes
 90
        0
 91
        1
280
     0
281
     0
  0
CLASS
  1
ACDBPLACEHOLDER
  2
AcDbPlaceHolder
  3
ObjectDBX Classes
 90
        0
 91
        1
280
     0
281
     0
  0
CLASS
  1
LAYOUT
  2
AcDbLayout
  3
ObjectDBX Classes
 90
        0
 91
        2
280
     0
281
     0
  0
ENDSEC
  0
SECTION
  2
TABLES
  0
TABLE
  2
VPORT
  5
5F02
330
0
100
AcDbSymbolTable
 70
     1
  0
VPORT
  5
5F73
330
5F02
100
AcDbSymbolTableRecord
100
AcDbViewportTableRecord
  2
*ACTIVE
 70
     0
 10
0.0
 20
0.0
 11
1.0
 21
1.0
 12
1423.705387742378
 22
-373.4017564501219
 13
0.0
 23
0.0
 14
0.5
 24
0.5
 15
0.5
 25
0.5
 16
0.0
 26
0.0
 36
1.0
 17
0.0
 27
0.0
 37
0.0
 40
74.72004739622025
 41
2.205741626794258
 42
50.0
 43
0.0
 44
0.0
 50
0.0
 51
0.0
 71
     0
 72
  1000
 73
     1
 74
     3
 75
     0
 76
     0
 77
     0
 78
     0
281
     0
 65
     1
110
0.0
120
0.0
130
0.0
111
1.0
121
0.0
131
0.0
112
0.0
122
1.0
132
0.0
 79
     0
146
0.0
  0
ENDTAB
  0
TABLE
  2
LTYPE
  5
5EFF
330
0
100
AcDbSymbolTable
 70
     3
  0
LTYPE
  5
5F5C
330
5EFF
100
AcDbSymbolTableRecord
100
AcDbLinetypeTableRecord
  2
ByBlock
 70
     0
  3

 72
    65
 73
     0
 40
0.0
  0
LTYPE
  5
5F5D
330
5EFF
100
AcDbSymbolTableRecord
100
AcDbLinetypeTableRecord
  2
ByLayer
 70
     0
  3

 72
    65
 73
     0
 40
0.0
  0
LTYPE
  5
5F5E
330
5EFF
100
AcDbSymbolTableRecord
100
AcDbLinetypeTableRecord
  2
CONTINUOUS
 70
     0
  3
Solid line
 72
    65
 73
     0
 40
0.0
  0
LTYPE
  5
5F74
330
5EFF
100
AcDbSymbolTableRecord
100
AcDbLinetypeTableRecord
  2
CENTER2
 70
     0
  3
Center (.5x) ___ _ ___ _ ___ _ ___ _ ___ _ ___
 72
    65
 73
     4
 40
28.575
 49
19.05
 74
     0
 49
-3.174999999999998
 74
     0
 49
3.174999999999998
 74
     0
 49
-3.174999999999998
 74
     0
  0
LTYPE
  5
5F75
330
5EFF
100
AcDbSymbolTableRecord
100
AcDbLinetypeTableRecord
  2
HIDDEN2
 70
     0
  3
Hidden (.5x) _ _ _ _ _ _ _ _ _ _ _ _ _ _ _ _ _
 72
    65
 73
     2
 40
4.762499999999998
 49
3.174999999999998
 74
     0
 49
-1.587499999999999
 74
     0
  0
ENDTAB
  0
TABLE
  2
LAYER
  5
5EFC
102
{ACAD_XDICTIONARY
360
61B7
102
}
330
0
100
AcDbSymbolTable
 70
     9
  0
LAYER
  5
5F56
102
{ACAD_XDICTIONARY
360
60F4
102
}
330
5EFC
100
AcDbSymbolTableRecord
100
AcDbLayerTableRecord
  2
0
 70
     0
 62
     7
  6
CONTINUOUS
370
    -3
390
5F09
  0
LAYER
  5
5F72
102
{ACAD_XDICTIONARY
360
60F6
102
}
330
5EFC
100
AcDbSymbolTableRecord
100
AcDbLayerTableRecord
  2
标注
 70
     0
 62
    80
  6
CONTINUOUS
370
    -3
390
5F09
  0
LAYER
  5
5F7D
102
{ACAD_XDICTIONARY
360
60F8
102
}
330
5EFC
100
AcDbSymbolTableRecord
100
AcDbLayerTableRecord
  2
中心线
 70
     0
 62
     1
  6
CENTER2
370
    -3
390
5F09
  0
LAYER
  5
5F7E
102
{ACAD_XDICTIONARY
360
60FA
102
}
330
5EFC
100
AcDbSymbolTableRecord
100
AcDbLayerTableRecord
  2
虚线
 70
     0
 62
     4
  6
HIDDEN2
370
    -3
390
5F09
  0
LAYER
  5
5F7F
330
5EFC
100
AcDbSymbolTableRecord
100
AcDbLayerTableRecord
  2
DEFPOINTS
 70
     0
 62
     7
  6
CONTINUOUS
290
     0
370
    -3
390
5F09
  0
LAYER
  5
5F80
102
{ACAD_XDICTIONARY
360
60FC
102
}
330
5EFC
100
AcDbSymbolTableRecord
100
AcDbLayerTableRecord
  2
细实线
 70
     0
 62
     7
  6
CONTINUOUS
370
    -3
390
5F09
  0
LAYER
  5
61B1
102
{ACAD_XDICTIONARY
360
61B2
102
}
330
5EFC
100
AcDbSymbolTableRecord
100
AcDbLayerTableRecord
  2
粗实线
 70
     0
 62
     7
  6
CONTINUOUS
370
    35
390
5F09
  0
LAYER
  5
6B9C
102
{ACAD_XDICTIONARY
360
6B9D
102
}
330
5EFC
100
AcDbSymbolTableRecord
100
AcDbLayerTableRecord
  2
截面层
 70
     0
 62
     6
  6
CONTINUOUS
370
    13
390
5F09
  0
LAYER
  5
7A5B
330
5EFC
100
AcDbSymbolTableRecord
100
AcDbLayerTableRecord
  2
标注线
 70
     0
 62
     3
  6
CONTINUOUS
370
     9
390
5F09
  0
ENDTAB
  0
TABLE
  2
STYLE
  5
5EFD
330
0
100
AcDbSymbolTable
 70
     2
  0
STYLE
  5
5F57
330
5EFD
100
AcDbSymbolTableRecord
100
AcDbTextStyleTableRecord
  2
STANDARD
 70
     0
 40
0.0
 41
1.0
 50
0.0
 71
     0
 42
0.2
  3
arial.ttf
  4

1001
ACAD
1000
Arial
1071
       34
  0
STYLE
  5
751B
330
5EFD
100
AcDbSymbolTableRecord
100
AcDbTextStyleTableRecord
  2
Arial
 70
     0
 40
0.0
 41
1.0
 50
0.0
 71
     0
 42
0.2
  3
arial.ttf
  4

1001
ACAD
1000
Arial
1071
       34
  0
ENDTAB
  0
TABLE
  2
VIEW
  5
5F00
330
0
100
AcDbSymbolTable
 70
     0
  0
ENDTAB
  0
TABLE
  2
UCS
  5
5F01
330
0
100
AcDbSymbolTable
 70
     0
  0
ENDTAB
  0
TABLE
  2
APPID
  5
5F03
330
0
100
AcDbSymbolTable
 70
    30
  0
APPID
  5
5F58
330
5F03
100
AcDbSymbolTableRecord
100
AcDbRegAppTableRecord
  2
ACAD
 70
     0
  0
APPID
  5
5F5F
330
5F03
100
AcDbSymbolTableRecord
100
AcDbRegAppTableRecord
  2
ACADANNOTATIVE
 70
     0
  0
APPID
  5
5F69
330
5F03
100
AcDbSymbolTableRecord
100
AcDbRegAppTableRecord
  2
ACAD_MLEADERVER
 70
     0
  0
APPID
  5
5F84
330
5F03
100
AcDbSymbolTableRecord
100
AcDbRegAppTableRecord
  2
ACAECLAYERSTANDARD
 70
     0
  0
APPID
  5
5F85
330
5F03
100
AcDbSymbolTableRecord
100
AcDbRegAppTableRecord
  2
ACAD_DSTYLE_DIMEXT_LENGTH
 70
     0
  0
APPID
  5
5F86
330
5F03
100
AcDbSymbolTableRecord
100
AcDbRegAppTableRecord
  2
ACAD_DSTYLE_DIMEXT_ENABLED
 70
     0
  0
APPID
  5
5F87
330
5F03
100
AcDbSymbolTableRecord
100
AcDbRegAppTableRecord
  2
ACAD_DSTYLE_DIMJOGGED_JOGA
 70
     0
  0
APPID
  5
5F88
330
5F03
100
AcDbSymbolTableRecord
100
AcDbRegAppTableRecord
  2
ACAD_DSTYLE_DIMARC_LENGTH_
 70
     0
  0
APPID
  5
5F89
330
5F03
100
AcDbSymbolTableRecord
100
AcDbRegAppTableRecord
  2
ACAD_PSEXT
 70
     0
  0
APPID
  5
5F8A
330
5F03
100
AcDbSymbolTableRecord
100
AcDbRegAppTableRecord
  2
MCAD_NO_VIS
 70
     0
  0
APPID
  5
5F8B
330
5F03
100
AcDbSymbolTableRecord
100
AcDbRegAppTableRecord
  2
ACAD_TEMP_GRAPHIC
 70
     0
  0
APPID
  5
5F8C
330
5F03
100
AcDbSymbolTableRecord
100
AcDbRegAppTableRecord
  2
AD_DRAW
 70
     0
  0
APPID
  5
5F8D
330
5F03
100
AcDbSymbolTableRecord
100
AcDbRegAppTableRecord
  2
ACATTRIBSERVICES
 70
     0
  0
APPID
  5
5F8E
330
5F03
100
AcDbSymbolTableRecord
100
AcDbRegAppTableRecord
  2
DESIGNERASSEMBLIES
 70
     0
  0
APPID
  5
5F8F
330
5F03
100
AcDbSymbolTableRecord
100
AcDbRegAppTableRecord
  2
ACADM_DIM_EDIT
 70
     0
  0
APPID
  5
5F90
330
5F03
100
AcDbSymbolTableRecord
100
AcDbRegAppTableRecord
  2
AMDT_DM_ADJ
 70
     0
  0
APPID
  5
5F91
330
5F03
100
AcDbSymbolTableRecord
100
AcDbRegAppTableRecord
  2
ACAD_DSTYLE_DIMJAG
 70
     0
  0
APPID
  5
5F92
330
5F03
100
AcDbSymbolTableRecord
100
AcDbRegAppTableRecord
  2
ACAD_DSTYLE_DIMBREAK
 70
     0
  0
APPID
  5
5F93
330
5F03
100
AcDbSymbolTableRecord
100
AcDbRegAppTableRecord
  2
ACAD_DSTYLE_DIMTALN
 70
     0
  0
APPID
  5
5F94
330
5F03
100
AcDbSymbolTableRecord
100
AcDbRegAppTableRecord
  2
GENIUS_GENODEF_13
 70
     0
  0
APPID
  5
5F95
330
5F03
100
AcDbSymbolTableRecord
100
AcDbRegAppTableRecord
  2
GENIUS_GENOBJ-N-FIL_13
 70
     0
  0
APPID
  5
5F96
330
5F03
100
AcDbSymbolTableRecord
100
AcDbRegAppTableRecord
  2
ACAD_EXEMPT_FROM_CAD_STANDARDS
 70
     0
  0
APPID
  5
5F97
330
5F03
100
AcDbSymbolTableRecord
100
AcDbRegAppTableRecord
  2
ACAD_DSTYLE_DIM_LINETYPE
 70
     0
  0
APPID
  5
5F98
330
5F03
100
AcDbSymbolTableRecord
100
AcDbRegAppTableRecord
  2
ACAD_DSTYLE_DIM_EXT1_LINETYPE
 70
     0
  0
APPID
  5
5F99
330
5F03
100
AcDbSymbolTableRecord
100
AcDbRegAppTableRecord
  2
ACAD_DSTYLE_DIM_EXT2_LINETYPE
 70
     0
  0
APPID
  5
5F9A
330
5F03
100
AcDbSymbolTableRecord
100
AcDbRegAppTableRecord
  2
ACAD_DSTYLE_DIMRADIAL_EXTENSION
 70
     0
  0
APPID
  5
6488
330
5F03
100
AcDbSymbolTableRecord
100
AcDbRegAppTableRecord
  2
AcadAnnoPO
 70
     0
  0
APPID
  5
6F89
330
5F03
100
AcDbSymbolTableRecord
100
AcDbRegAppTableRecord
  2
GENIUS_GENFIL_13
 70
     0
  0
APPID
  5
6F8A
330
5F03
100
AcDbSymbolTableRecord
100
AcDbRegAppTableRecord
  2
GENIUS_GENOBJ-N-CHA_13
 70
     0
  0
APPID
  5
751D
330
5F03
100
AcDbSymbolTableRecord
100
AcDbRegAppTableRecord
  2
ACAD_DSTYLE_DIMJOGGED_JOGANGLE_SYMBOL
 70
     0
  0
ENDTAB
  0
TABLE
  2
DIMSTYLE
  5
5F04
330
0
100
AcDbSymbolTable
 70
     6
100
AcDbDimStyleTable
 71
     2
340
5F9B
340
5F59
  0
DIMSTYLE
105
5F59
330
5F04
100
AcDbSymbolTableRecord
100
AcDbDimStyleTableRecord
  2
STANDARD
 70
     0
 41
0.65
 73
     0
 74
     0
140
0.65
176
     3
177
     3
178
     3
271
     3
272
     3
276
     2
277
     5
279
     2
284
     8
285
     8
286
     8
340
5F57
371
    13
372
    13
1001
ACAD_DSTYLE_DIMJAG
1070
   388
1040
1.5
1001
ACAD_DSTYLE_DIMTALN
1070
   392
1070
     0
1001
ACAD_DSTYLE_DIM_LINETYPE
1070
   380
1005
5F5E
1001
ACAD_DSTYLE_DIM_EXT1_LINETYPE
1070
   381
1005
5F5E
1001
ACAD_DSTYLE_DIM_EXT2_LINETYPE
1070
   382
1005
5F5E
  0
DIMSTYLE
105
5F9B
102
{ACAD_REACTORS
330
7849
330
783F
330
7840
330
7841
330
7844
330
7846
330
7847
330
7848
330
795B
330
7973
330
7974
102
}
330
5F04
100
AcDbSymbolTableRecord
100
AcDbDimStyleTableRecord
  2
副本STANDARD
 70
     0
  3
"
  4
"
 41
0.65
 42
0.88
 43
0.015
 44
0.32
 73
     0
 74
     0
 78
     8
140
0.65
143
0.03937
147
0.3
171
     1
172
     1
176
   256
177
   256
178
   256
271
     3
272
     3
274
     1
276
     2
277
     5
279
     2
284
     8
285
     8
286
     8
340
5F57
1001
ACAD_DSTYLE_DIMJAG
1070
   388
1040
1.5
1001
ACAD_DSTYLE_DIMTALN
1070
   392
1070
     0
  0
DIMSTYLE
105
6F86
330
5F04
100
AcDbSymbolTableRecord
100
AcDbDimStyleTableRecord
  2
中14+
 70
     0
  4
"
 41
14.0
 42
10.0
 43
1.0
 44
2.0
 73
     0
 74
     0
 78
     8
140
14.0
141
2.0
143
0.03937007874016
147
5.0
171
     3
172
     1
177
   256
179
     1
271
     1
272
     1
273
     7
274
     3
278
    44
283
     0
284
     8
340
5F57
1001
ACAD_DSTYLE_DIMBREAK
1070
   391
1040
0.2
1001
ACAD_DSTYLE_DIMJAG
1070
   388
1040
1.5
1001
ACAD_DSTYLE_DIMTALN
1070
   392
1070
     0
  0
DIMSTYLE
105
6F87
330
5F04
100
AcDbSymbolTableRecord
100
AcDbDimStyleTableRecord
  2
毫米英寸Standard
 70
     0
  3
mm
  4
"
 41
14.0
 42
20.0
 44
8.0
 73
     0
 74
     0
 78
     8
 79
     2
140
14.0
143
0.03937
147
8.0
170
     1
171
     3
172
     1
176
   256
177
   256
178
   256
179
     1
271
     1
272
     1
273
     7
274
     3
278
    44
340
5F57
1001
ACAD_DSTYLE_DIMBREAK
1070
   391
1040
0.125
1001
ACAD_DSTYLE_DIMJAG
1070
   388
1040
1.5
1001
ACAD_DSTYLE_DIMTALN
1070
   392
1070
     0
  0
DIMSTYLE
105
6F88
330
5F04
100
AcDbSymbolTableRecord
100
AcDbDimStyleTableRecord
  2
放大3倍
 70
     0
  4
"
 41
14.0
 42
10.0
 43
1.0
 44
2.0
 73
     0
 74
     0
 78
     8
140
14.0
141
2.0
143
0.03937007874016
144
0.333333333333333
147
5.0
171
     3
172
     1
176
     3
177
   256
178
     3
179
     1
271
     1
272
     1
273
     7
274
     3
278
    44
283
     0
284
     8
340
5F57
371
     9
372
     9
1001
ACAD_DSTYLE_DIMBREAK
1070
   391
1040
0.2
1001
ACAD_DSTYLE_DIMJAG
1070
   388
1040
1.5
1001
ACAD_DSTYLE_DIMTALN
1070
   392
1070
     0
1001
ACAD_DSTYLE_DIM_LINETYPE
1070
   380
1005
5F5E
1001
ACAD_DSTYLE_DIM_EXT1_LINETYPE
1070
   381
1005
5F5E
1001
ACAD_DSTYLE_DIM_EXT2_LINETYPE
1070
   382
1005
5F5E
  0
DIMSTYLE
105
751C
330
5F04
100
AcDbSymbolTableRecord
100
AcDbDimStyleTableRecord
  2
英寸
 70
     0
  3
"
  4
"
 41
16.0
 42
22.0
 44
8.0
 73
     0
 74
     0
 78
     8
 79
     2
140
16.0
143
0.03937
144
0.03937007874
147
5.0
171
     3
172
     1
176
   256
177
   256
178
   256
179
     1
271
     3
272
     3
273
     7
274
     3
276
     2
277
     5
278
    44
340
751B
1001
ACAD_DSTYLE_DIMJOGGED_JOGANGLE_SYMBOL
1070
   384
1040
0.7853981633974483
1001
ACAD_DSTYLE_DIMJAG
1070
   388
1040
1.5
1001
ACAD_DSTYLE_DIMTALN
1070
   392
1070
     0
1001
ACAD_DSTYLE_DIMEXT_LENGTH
1070
   378
1040
8.0
  0
ENDTAB
  0
TABLE
  2
BLOCK_RECORD
  5
5EFB
330
0
100
AcDbSymbolTable
 70
    70
  0
BLOCK_RECORD
  5
5F6E
102
{ACAD_XDICTIONARY
360
654F
102
}
330
5EFB
100
AcDbSymbolTableRecord
100
AcDbBlockTableRecord
  2
*Model_Space
340
5F71
  0
BLOCK_RECORD
  5
5F6A
330
5EFB
100
AcDbSymbolTableRecord
100
AcDbBlockTableRecord
  2
*Paper_Space
340
5F6D
  0
BLOCK_RECORD
  5
6D74
330
5EFB
100
AcDbSymbolTableRecord
100
AcDbBlockTableRecord
  2
*D0
340
0
  0
BLOCK_RECORD
  5
6D82
330
5EFB
100
AcDbSymbolTableRecord
100
AcDbBlockTableRecord
  2
*D1
340
0
  0
BLOCK_RECORD
  5
6D90
330
5EFB
100
AcDbSymbolTableRecord
100
AcDbBlockTableRecord
  2
*D2
340
0
  0
BLOCK_RECORD
  5
6DAF
330
5EFB
100
AcDbSymbolTableRecord
100
AcDbBlockTableRecord
  2
*D3
340
0
  0
BLOCK_RECORD
  5
6DB9
330
5EFB
100
AcDbSymbolTableRecord
100
AcDbBlockTableRecord
  2
*D4
340
0
  0
BLOCK_RECORD
  5
6DC3
330
5EFB
100
AcDbSymbolTableRecord
100
AcDbBlockTableRecord
  2
*D5
340
0
  0
BLOCK_RECORD
  5
6DF7
330
5EFB
100
AcDbSymbolTableRecord
100
AcDbBlockTableRecord
  2
*D6
340
0
  0
BLOCK_RECORD
  5
6E05
330
5EFB
100
AcDbSymbolTableRecord
100
AcDbBlockTableRecord
  2
*D7
340
0
  0
BLOCK_RECORD
  5
6E13
330
5EFB
100
AcDbSymbolTableRecord
100
AcDbBlockTableRecord
  2
*D8
340
0
  0
BLOCK_RECORD
  5
6E21
330
5EFB
100
AcDbSymbolTableRecord
100
AcDbBlockTableRecord
  2
*D9
340
0
  0
BLOCK_RECORD
  5
6E2F
330
5EFB
100
AcDbSymbolTableRecord
100
AcDbBlockTableRecord
  2
*D10
340
0
  0
BLOCK_RECORD
  5
6E3D
330
5EFB
100
AcDbSymbolTableRecord
100
AcDbBlockTableRecord
  2
*D11
340
0
  0
BLOCK_RECORD
  5
6E4B
330
5EFB
100
AcDbSymbolTableRecord
100
AcDbBlockTableRecord
  2
*D12
340
0
  0
BLOCK_RECORD
  5
6E59
330
5EFB
100
AcDbSymbolTableRecord
100
AcDbBlockTableRecord
  2
*D13
340
0
  0
BLOCK_RECORD
  5
6E7B
330
5EFB
100
AcDbSymbolTableRecord
100
AcDbBlockTableRecord
  2
*D14
340
0
  0
BLOCK_RECORD
  5
6E89
330
5EFB
100
AcDbSymbolTableRecord
100
AcDbBlockTableRecord
  2
*D15
340
0
  0
BLOCK_RECORD
  5
6E93
330
5EFB
100
AcDbSymbolTableRecord
100
AcDbBlockTableRecord
  2
*D16
340
0
  0
BLOCK_RECORD
  5
707E
330
5EFB
100
AcDbSymbolTableRecord
100
AcDbBlockTableRecord
  2
*D17
340
0
  0
BLOCK_RECORD
  5
708C
330
5EFB
100
AcDbSymbolTableRecord
100
AcDbBlockTableRecord
  2
*D18
340
0
  0
BLOCK_RECORD
  5
70C3
330
5EFB
100
AcDbSymbolTableRecord
100
AcDbBlockTableRecord
  2
*D19
340
0
  0
BLOCK_RECORD
  5
70CD
330
5EFB
100
AcDbSymbolTableRecord
100
AcDbBlockTableRecord
  2
*D20
340
0
  0
BLOCK_RECORD
  5
70DB
330
5EFB
100
AcDbSymbolTableRecord
100
AcDbBlockTableRecord
  2
*D21
340
0
  0
BLOCK_RECORD
  5
70E9
330
5EFB
100
AcDbSymbolTableRecord
100
AcDbBlockTableRecord
  2
*D22
340
0
  0
BLOCK_RECORD
  5
70F7
330
5EFB
100
AcDbSymbolTableRecord
100
AcDbBlockTableRecord
  2
*D23
340
0
  0
BLOCK_RECORD
  5
7118
330
5EFB
100
AcDbSymbolTableRecord
100
AcDbBlockTableRecord
  2
*D24
340
0
  0
BLOCK_RECORD
  5
7128
330
5EFB
100
AcDbSymbolTableRecord
100
AcDbBlockTableRecord
  2
*D25
340
0
  0
BLOCK_RECORD
  5
7136
330
5EFB
100
AcDbSymbolTableRecord
100
AcDbBlockTableRecord
  2
*D26
340
0
  0
BLOCK_RECORD
  5
7144
330
5EFB
100
AcDbSymbolTableRecord
100
AcDbBlockTableRecord
  2
*D27
340
0
  0
BLOCK_RECORD
  5
727A
330
5EFB
100
AcDbSymbolTableRecord
100
AcDbBlockTableRecord
  2
*D28
340
0
  0
BLOCK_RECORD
  5
7288
330
5EFB
100
AcDbSymbolTableRecord
100
AcDbBlockTableRecord
  2
*D29
340
0
  0
BLOCK_RECORD
  5
7384
330
5EFB
100
AcDbSymbolTableRecord
100
AcDbBlockTableRecord
  2
*D30
340
0
  0
BLOCK_RECORD
  5
7392
330
5EFB
100
AcDbSymbolTableRecord
100
AcDbBlockTableRecord
  2
*D31
340
0
  0
BLOCK_RECORD
  5
73AB
330
5EFB
100
AcDbSymbolTableRecord
100
AcDbBlockTableRecord
  2
*D32
340
0
  0
BLOCK_RECORD
  5
73B5
330
5EFB
100
AcDbSymbolTableRecord
100
AcDbBlockTableRecord
  2
*D33
340
0
  0
BLOCK_RECORD
  5
73C3
330
5EFB
100
AcDbSymbolTableRecord
100
AcDbBlockTableRecord
  2
*D34
340
0
  0
BLOCK_RECORD
  5
73D1
330
5EFB
100
AcDbSymbolTableRecord
100
AcDbBlockTableRecord
  2
*D35
340
0
  0
BLOCK_RECORD
  5
73DF
330
5EFB
100
AcDbSymbolTableRecord
100
AcDbBlockTableRecord
  2
*D36
340
0
  0
BLOCK_RECORD
  5
73ED
330
5EFB
100
AcDbSymbolTableRecord
100
AcDbBlockTableRecord
  2
*D37
340
0
  0
BLOCK_RECORD
  5
7403
330
5EFB
100
AcDbSymbolTableRecord
100
AcDbBlockTableRecord
  2
*D38
340
0
  0
BLOCK_RECORD
  5
7411
330
5EFB
100
AcDbSymbolTableRecord
100
AcDbBlockTableRecord
  2
*D39
340
0
  0
BLOCK_RECORD
  5
741F
330
5EFB
100
AcDbSymbolTableRecord
100
AcDbBlockTableRecord
  2
*D40
340
0
  0
BLOCK_RECORD
  5
764F
330
5EFB
100
AcDbSymbolTableRecord
100
AcDbBlockTableRecord
  2
*D41
340
0
  0
BLOCK_RECORD
  5
765D
330
5EFB
100
AcDbSymbolTableRecord
100
AcDbBlockTableRecord
  2
*D42
340
0
  0
BLOCK_RECORD
  5
766B
330
5EFB
100
AcDbSymbolTableRecord
100
AcDbBlockTableRecord
  2
*D43
340
0
  0
BLOCK_RECORD
  5
7679
330
5EFB
100
AcDbSymbolTableRecord
100
AcDbBlockTableRecord
  2
*D44
340
0
  0
BLOCK_RECORD
  5
7687
330
5EFB
100
AcDbSymbolTableRecord
100
AcDbBlockTableRecord
  2
*D45
340
0
  0
BLOCK_RECORD
  5
7695
330
5EFB
100
AcDbSymbolTableRecord
100
AcDbBlockTableRecord
  2
*D46
340
0
  0
BLOCK_RECORD
  5
76A3
330
5EFB
100
AcDbSymbolTableRecord
100
AcDbBlockTableRecord
  2
*D47
340
0
  0
BLOCK_RECORD
  5
76C9
330
5EFB
100
AcDbSymbolTableRecord
100
AcDbBlockTableRecord
  2
*D48
340
0
  0
BLOCK_RECORD
  5
76D7
330
5EFB
100
AcDbSymbolTableRecord
100
AcDbBlockTableRecord
  2
*D49
340
0
  0
BLOCK_RECORD
  5
76E5
330
5EFB
100
AcDbSymbolTableRecord
100
AcDbBlockTableRecord
  2
*D50
340
0
  0
BLOCK_RECORD
  5
774F
330
5EFB
100
AcDbSymbolTableRecord
100
AcDbBlockTableRecord
  2
*D51
340
0
  0
BLOCK_RECORD
  5
7759
330
5EFB
100
AcDbSymbolTableRecord
100
AcDbBlockTableRecord
  2
*D52
340
0
  0
BLOCK_RECORD
  5
7763
330
5EFB
100
AcDbSymbolTableRecord
100
AcDbBlockTableRecord
  2
*D53
340
0
  0
BLOCK_RECORD
  5
784C
330
5EFB
100
AcDbSymbolTableRecord
100
AcDbBlockTableRecord
  2
*D54
340
0
  0
BLOCK_RECORD
  5
7855
330
5EFB
100
AcDbSymbolTableRecord
100
AcDbBlockTableRecord
  2
*D55
340
0
  0
BLOCK_RECORD
  5
785E
330
5EFB
100
AcDbSymbolTableRecord
100
AcDbBlockTableRecord
  2
*D56
340
0
  0
BLOCK_RECORD
  5
7867
330
5EFB
100
AcDbSymbolTableRecord
100
AcDbBlockTableRecord
  2
*D57
340
0
  0
BLOCK_RECORD
  5
7874
330
5EFB
100
AcDbSymbolTableRecord
100
AcDbBlockTableRecord
  2
*D58
340
0
  0
BLOCK_RECORD
  5
7881
330
5EFB
100
AcDbSymbolTableRecord
100
AcDbBlockTableRecord
  2
*D59
340
0
  0
BLOCK_RECORD
  5
788E
330
5EFB
100
AcDbSymbolTableRecord
100
AcDbBlockTableRecord
  2
*D60
340
0
  0
BLOCK_RECORD
  5
789B
330
5EFB
100
AcDbSymbolTableRecord
100
AcDbBlockTableRecord
  2
*D61
340
0
  0
BLOCK_RECORD
  5
78A8
330
5EFB
100
AcDbSymbolTableRecord
100
AcDbBlockTableRecord
  2
*D62
340
0
  0
BLOCK_RECORD
  5
78B5
330
5EFB
100
AcDbSymbolTableRecord
100
AcDbBlockTableRecord
  2
*D63
340
0
  0
BLOCK_RECORD
  5
78C2
330
5EFB
100
AcDbSymbolTableRecord
100
AcDbBlockTableRecord
  2
*D64
340
0
  0
BLOCK_RECORD
  5
78CF
330
5EFB
100
AcDbSymbolTableRecord
100
AcDbBlockTableRecord
  2
*D65
340
0
  0
BLOCK_RECORD
  5
78DC
330
5EFB
100
AcDbSymbolTableRecord
100
AcDbBlockTableRecord
  2
*D66
340
0
  0
BLOCK_RECORD
  5
795C
330
5EFB
100
AcDbSymbolTableRecord
100
AcDbBlockTableRecord
  2
*D67
340
0
  0
BLOCK_RECORD
  5
7975
330
5EFB
100
AcDbSymbolTableRecord
100
AcDbBlockTableRecord
  2
*D68
340
0
  0
BLOCK_RECORD
  5
7982
330
5EFB
100
AcDbSymbolTableRecord
100
AcDbBlockTableRecord
  2
*D69
340
0
  0
ENDTAB
  0
ENDSEC
  0
SECTION
  2
BLOCKS
  0
BLOCK
  5
5F6F
330
5F6E
100
AcDbEntity
  8
0
100
AcDbBlockBegin
  2
*Model_Space
 70
     0
 10
0.0
 20
0.0
 30
0.0
  3
*Model_Space
  1

  0
ENDBLK
  5
5F70
330
5F6E
100
AcDbEntity
  8
0
100
AcDbBlockEnd
  0
BLOCK
  5
5F6B
330
5F6A
100
AcDbEntity
 67
     1
  8
0
100
AcDbBlockBegin
  2
*Paper_Space
 70
     0
 10
0.0
 20
0.0
 30
0.0
  3
*Paper_Space
  1

  0
ENDBLK
  5
5F6C
330
5F6A
100
AcDbEntity
 67
     1
  8
0
100
AcDbBlockEnd
  0
BLOCK
  5
6D75
330
6D74
100
AcDbEntity
  8
0
100
AcDbBlockBegin
  2
*D0
 70
     1
 10
0.0
 20
0.0
 30
0.0
  3
*D0
  1

  0
LINE
  5
6EA8
330
6D74
100
AcDbEntity
  8
标注
370
    -2
100
AcDbLine
 10
1010.232169094564
 20
111.8880736471611
 30
0.0
 11
1010.232169094564
 21
109.3331919395887
 31
0.0
  0
LINE
  5
6EA9
330
6D74
100
AcDbEntity
  8
标注
370
    -2
100
AcDbLine
 10
1038.889649409404
 20
111.8880736471611
 30
0.0
 11
1038.889649409404
 21
109.3331919395887
 31
0.0
  0
LINE
  5
6EAA
330
6D74
100
AcDbEntity
  8
标注
370
    -2
100
AcDbLine
 10
1010.882169094564
 20
109.6531919395888
 30
0.0
 11
1022.872010889092
 21
109.6531919395888
 31
0.0
  0
LINE
  5
6EAB
330
6D74
100
AcDbEntity
  8
标注
370
    -2
100
AcDbLine
 10
1038.239649409404
 20
109.6531919395888
 30
0.0
 11
1026.249807614876
 21
109.6531919395888
 31
0.0
  0
SOLID
  5
6EAC
330
6D74
100
AcDbEntity
  8
标注
100
AcDbTrace
 10
1010.882169094564
 20
109.7615252729221
 30
0.0
 11
1010.882169094564
 21
109.5448586062554
 31
0.0
 12
1010.232169094564
 22
109.6531919395888
 32
0.0
 13
1010.232169094564
 23
109.6531919395888
 33
0.0
  0
SOLID
  5
6EAD
330
6D74
100
AcDbEntity
  8
标注
100
AcDbTrace
 10
1038.239649409404
 20
109.7615252729221
 30
0.0
 11
1038.239649409404
 21
109.5448586062554
 31
0.0
 12
1038.889649409404
 22
109.6531919395888
 32
0.0
 13
1038.889649409404
 23
109.6531919395888
 33
0.0
  0
MTEXT
  5
6EAE
330
6D74
100
AcDbEntity
  8
标注
100
AcDbMText
 10
1024.560909251984
 20
109.6531919395888
 30
0.0
 40
0.65
 41
0.0
 71
     5
 72
     1
  1
\A1;28 5/8"
 73
     1
 44
1.0
  0
POINT
  5
6EAF
330
6D74
100
AcDbEntity
  8
DEFPOINTS
 62
     0
100
AcDbPoint
 10
1010.232169094564
 20
112.7680736471611
 30
0.0
  0
POINT
  5
6EB0
330
6D74
100
AcDbEntity
  8
DEFPOINTS
 62
     0
100
AcDbPoint
 10
1038.889649409404
 20
112.7680736471611
 30
0.0
  0
POINT
  5
6EB1
330
6D74
100
AcDbEntity
  8
DEFPOINTS
 62
     0
100
AcDbPoint
 10
1038.889649409404
 20
109.6531919395888
 30
0.0
  0
ENDBLK
  5
6D76
330
6D74
100
AcDbEntity
  8
0
100
AcDbBlockEnd
  0
BLOCK
  5
6D83
330
6D82
100
AcDbEntity
  8
0
100
AcDbBlockBegin
  2
*D1
 70
     1
 10
0.0
 20
0.0
 30
0.0
  3
*D1
  1

  0
LINE
  5
6EB2
330
6D82
100
AcDbEntity
  8
标注
370
    -2
100
AcDbLine
 10
1039.297208464536
 20
112.2956327022929
 30
0.0
 11
1041.352195043713
 21
112.2956327022929
 31
0.0
  0
LINE
  5
6EB3
330
6D82
100
AcDbEntity
  8
标注
370
    -2
100
AcDbLine
 10
1039.297208464536
 20
128.4531130171908
 30
0.0
 11
1041.352195043713
 21
128.4531130171908
 31
0.0
  0
LINE
  5
6EB4
330
6D82
100
AcDbEntity
  8
标注
370
    -2
100
AcDbLine
 10
1041.032195043713
 20
112.9456327022929
 30
0.0
 11
1041.032195043713
 21
118.7216102403694
 31
0.0
  0
LINE
  5
6EB5
330
6D82
100
AcDbEntity
  8
标注
370
    -2
100
AcDbLine
 10
1041.032195043713
 20
127.8031130171908
 30
0.0
 11
1041.032195043713
 21
122.0271354791143
 31
0.0
  0
SOLID
  5
6EB6
330
6D82
100
AcDbEntity
  8
标注
100
AcDbTrace
 10
1040.92386171038
 20
112.9456327022929
 30
0.0
 11
1041.140528377046
 21
112.9456327022929
 31
0.0
 12
1041.032195043713
 22
112.2956327022929
 32
0.0
 13
1041.032195043713
 23
112.2956327022929
 33
0.0
  0
SOLID
  5
6EB7
330
6D82
100
AcDbEntity
  8
标注
100
AcDbTrace
 10
1040.92386171038
 20
127.8031130171908
 30
0.0
 11
1041.140528377046
 21
127.8031130171908
 31
0.0
 12
1041.032195043713
 22
128.4531130171908
 32
0.0
 13
1041.032195043713
 23
128.4531130171908
 33
0.0
  0
MTEXT
  5
6EB8
330
6D82
100
AcDbEntity
  8
标注
100
AcDbMText
 10
1041.032195043713
 20
120.374372859742
 30
0.0
 40
0.65
 41
0.0
 71
     5
 72
     1
  1
\A1;16 1/8"
 11
0.0000000000000001
 21
1.0
 31
0.0
 73
     1
 44
1.0
  0
POINT
  5
6EB9
330
6D82
100
AcDbEntity
  8
DEFPOINTS
 62
     0
100
AcDbPoint
 10
1038.417208464536
 20
112.2956327022929
 30
0.0
  0
POINT
  5
6EBA
330
6D82
100
AcDbEntity
  8
DEFPOINTS
 62
     0
100
AcDbPoint
 10
1038.417208464536
 20
128.4531130171908
 30
0.0
  0
POINT
  5
6EBB
330
6D82
100
AcDbEntity
  8
DEFPOINTS
 62
     0
100
AcDbPoint
 10
1041.032195043713
 20
128.4531130171908
 30
0.0
  0
ENDBLK
  5
6D84
330
6D82
100
AcDbEntity
  8
0
100
AcDbBlockEnd
  0
BLOCK
  5
6D91
330
6D90
100
AcDbEntity
  8
0
100
AcDbBlockBegin
  2
*D2
 70
     1
 10
0.0
 20
0.0
 30
0.0
  3
*D2
  1

  0
LINE
  5
6EBC
330
6D90
100
AcDbEntity
  8
标注
370
    -2
100
AcDbLine
 10
1009.824610039433
 20
112.2956327022929
 30
0.0
 11
1007.242350226264
 21
112.2956327022929
 31
0.0
  0
LINE
  5
6EBD
330
6D90
100
AcDbEntity
  8
标注
370
    -2
100
AcDbLine
 10
1009.824610039433
 20
130.4531130171908
 30
0.0
 11
1007.242350226264
 21
130.4531130171908
 31
0.0
  0
LINE
  5
6EBE
330
6D90
100
AcDbEntity
  8
标注
370
    -2
100
AcDbLine
 10
1007.562350226264
 20
112.9456327022929
 30
0.0
 11
1007.562350226264
 21
119.7216102403694
 31
0.0
  0
LINE
  5
6EBF
330
6D90
100
AcDbEntity
  8
标注
370
    -2
100
AcDbLine
 10
1007.562350226264
 20
129.8031130171908
 30
0.0
 11
1007.562350226264
 21
123.0271354791143
 31
0.0
  0
SOLID
  5
6EC0
330
6D90
100
AcDbEntity
  8
标注
100
AcDbTrace
 10
1007.45401689293
 20
112.9456327022929
 30
0.0
 11
1007.670683559597
 21
112.9456327022929
 31
0.0
 12
1007.562350226264
 22
112.2956327022929
 32
0.0
 13
1007.562350226264
 23
112.2956327022929
 33
0.0
  0
SOLID
  5
6EC1
330
6D90
100
AcDbEntity
  8
标注
100
AcDbTrace
 10
1007.45401689293
 20
129.8031130171908
 30
0.0
 11
1007.670683559597
 21
129.8031130171908
 31
0.0
 12
1007.562350226264
 22
130.4531130171908
 32
0.0
 13
1007.562350226264
 23
130.4531130171908
 33
0.0
  0
MTEXT
  5
6EC2
330
6D90
100
AcDbEntity
  8
标注
100
AcDbMText
 10
1007.562350226264
 20
121.374372859742
 30
0.0
 40
0.65
 41
0.0
 71
     5
 72
     1
  1
\A1;18 1/8"
 11
0.0000000000000001
 21
1.0
 31
0.0
 73
     1
 44
1.0
  0
POINT
  5
6EC3
330
6D90
100
AcDbEntity
  8
DEFPOINTS
 62
     0
100
AcDbPoint
 10
1010.704610039433
 20
112.2956327022929
 30
0.0
  0
POINT
  5
6EC4
330
6D90
100
AcDbEntity
  8
DEFPOINTS
 62
     0
100
AcDbPoint
 10
1010.704610039433
 20
130.4531130171908
 30
0.0
  0
POINT
  5
6EC5
330
6D90
100
AcDbEntity
  8
DEFPOINTS
 62
     0
100
AcDbPoint
 10
1007.562350226264
 20
130.4531130171908
 30
0.0
  0
ENDBLK
  5
6D92
330
6D90
100
AcDbEntity
  8
0
100
AcDbBlockEnd
  0
BLOCK
  5
6DB0
330
6DAF
100
AcDbEntity
  8
0
100
AcDbBlockBegin
  2
*D3
 70
     1
 10
0.0
 20
0.0
 30
0.0
  3
*D3
  1

  0
LINE
  5
6EC6
330
6DAF
100
AcDbEntity
  8
标注
370
    -2
100
AcDbLine
 10
1009.847727533964
 20
112.0430729253927
 30
0.0
 11
1009.351511112873
 21
111.6232285930035
 31
0.0
  0
MTEXT
  5
6EC7
330
6DAF
100
AcDbEntity
  8
标注
100
AcDbMText
 10
1008.121422579357
 20
111.0360046414869
 30
0.0
 40
0.65
 41
0.0
 71
     5
 72
     1
  1
\A1;4-R1/2"
 11
0.7634098786019736
 21
0.6459143575218933
 31
0.0
 73
     1
 44
1.0
  0
LINE
  5
6EC8
330
6DAF
100
AcDbEntity
  8
标注
370
    -2
100
AcDbLine
 10
1010.704610039433
 20
112.7680736471612
 30
0.0
 11
1010.343943955055
 21
112.462917257782
 31
0.0
  0
SOLID
  5
6EC9
330
6DAF
100
AcDbEntity
  8
标注
100
AcDbTrace
 10
1009.777753478566
 20
112.1257756622412
 30
0.0
 11
1009.917701589362
 21
111.9603701885441
 31
0.0
 12
1010.343943955055
 22
112.462917257782
 32
0.0
 13
1010.343943955055
 23
112.462917257782
 33
0.0
  0
POINT
  5
6ECA
330
6DAF
100
AcDbEntity
  8
DEFPOINTS
 62
     0
100
AcDbPoint
 10
1010.343943955055
 20
112.462917257782
 30
0.0
  0
POINT
  5
6ECB
330
6DAF
100
AcDbEntity
  8
DEFPOINTS
 62
     0
100
AcDbPoint
 10
1010.704610039433
 20
112.7680736471612
 30
0.0
  0
ENDBLK
  5
6DB1
330
6DAF
100
AcDbEntity
  8
0
100
AcDbBlockEnd
  0
BLOCK
  5
6DBA
330
6DB9
100
AcDbEntity
  8
0
100
AcDbBlockBegin
  2
*D4
 70
     1
 10
0.0
 20
0.0
 30
0.0
  3
*D4
  1

  0
LINE
  5
6ECC
330
6DB9
100
AcDbEntity
  8
标注
370
    -2
100
AcDbLine
 10
1024.545303572767
 20
130.9109248389289
 30
0.0
 11
1024.909030343582
 21
131.4496296153994
 31
0.0
  0
MTEXT
  5
6ECD
330
6DB9
100
AcDbEntity
  8
标注
100
AcDbMText
 10
1024.351579828208
 20
131.629011722406
 30
0.0
 40
0.65
 41
0.0
 71
     5
 72
     1
  1
\A1;R1/2"
 11
0.5595796474082685
 21
0.8287765791855113
 31
0.0
 73
     1
 44
1.0
  0
LINE
  5
6ECE
330
6DB9
100
AcDbEntity
  8
标注
370
    -2
100
AcDbLine
 10
1023.917208464594
 20
129.9806720722935
 30
0.0
 11
1024.181576801951
 21
130.3722200624584
 31
0.0
  0
SOLID
  5
6ECF
330
6DB9
100
AcDbEntity
  8
标注
100
AcDbTrace
 10
1024.455519443355
 20
130.9715459673982
 30
0.0
 11
1024.635087702178
 21
130.8503037104597
 31
0.0
 12
1024.181576801951
 22
130.3722200624584
 32
0.0
 13
1024.181576801951
 23
130.3722200624584
 33
0.0
  0
POINT
  5
6ED0
330
6DB9
100
AcDbEntity
  8
DEFPOINTS
 62
     0
100
AcDbPoint
 10
1024.181576801951
 20
130.3722200624584
 30
0.0
  0
POINT
  5
6ED1
330
6DB9
100
AcDbEntity
  8
DEFPOINTS
 62
     0
100
AcDbPoint
 10
1023.917208464594
 20
129.9806720722935
 30
0.0
  0
ENDBLK
  5
6DBB
330
6DB9
100
AcDbEntity
  8
0
100
AcDbBlockEnd
  0
BLOCK
  5
6DC4
330
6DC3
100
AcDbEntity
  8
0
100
AcDbBlockBegin
  2
*D5
 70
     1
 10
0.0
 20
0.0
 30
0.0
  3
*D5
  1

  0
LINE
  5
6ED2
330
6DC3
100
AcDbEntity
  8
标注
370
    -2
100
AcDbLine
 10
1024.076067768398
 20
128.0793094723327
 30
0.0
 11
1023.635583690926
 21
127.601320165451
 31
0.0
  0
MTEXT
  5
6ED3
330
6DC3
100
AcDbEntity
  8
标注
100
AcDbMText
 10
1023.402694570716
 20
128.2171821300071
 30
0.0
 40
0.65
 41
0.0
 71
     5
 72
     1
  1
\A1;R3/8"
 11
0.6776678114960708
 21
0.7353681644333851
 31
0.0
 73
     1
 44
1.0
  0
LINE
  5
6ED4
330
6DC3
100
AcDbEntity
  8
标注
370
    -2
100
AcDbLine
 10
1024.783350196852
 20
128.8468138045808
 30
0.0
 11
1024.51655184587
 21
128.5572987792144
 31
0.0
  0
SOLID
  5
6ED5
330
6DC3
100
AcDbEntity
  8
标注
100
AcDbTrace
 10
1023.996402883918
 20
128.1527234852448
 30
0.0
 11
1024.155732652878
 21
128.0058954594207
 31
0.0
 12
1024.51655184587
 22
128.5572987792144
 32
0.0
 13
1024.51655184587
 23
128.5572987792144
 33
0.0
  0
POINT
  5
6ED6
330
6DC3
100
AcDbEntity
  8
DEFPOINTS
 62
     0
100
AcDbPoint
 10
1024.51655184587
 20
128.5572987792144
 30
0.0
  0
POINT
  5
6ED7
330
6DC3
100
AcDbEntity
  8
DEFPOINTS
 62
     0
100
AcDbPoint
 10
1024.783350196852
 20
128.8468138045808
 30
0.0
  0
ENDBLK
  5
6DC5
330
6DC3
100
AcDbEntity
  8
0
100
AcDbBlockEnd
  0
BLOCK
  5
6DF8
330
6DF7
100
AcDbEntity
  8
0
100
AcDbBlockBegin
  2
*D6
 70
     1
 10
0.0
 20
0.0
 30
0.0
  3
*D6
  1

  0
LINE
  5
6ED8
330
6DF7
100
AcDbEntity
  8
标注
370
    -2
100
AcDbLine
 10
1009.710288124228
 20
146.5166919853646
 30
0.0
 11
1009.710288124228
 21
144.1295932028442
 31
0.0
  0
LINE
  5
6ED9
330
6DF7
100
AcDbEntity
  8
标注
370
    -2
100
AcDbLine
 10
1023.71028812417
 20
146.5166919853646
 30
0.0
 11
1023.71028812417
 21
144.1295932028442
 31
0.0
  0
LINE
  5
6EDA
330
6DF7
100
AcDbEntity
  8
标注
370
    -2
100
AcDbLine
 10
1010.360288124228
 20
144.4495932028441
 30
0.0
 11
1015.814824276995
 21
144.4495932028441
 31
0.0
  0
LINE
  5
6EDB
330
6DF7
100
AcDbEntity
  8
标注
370
    -2
100
AcDbLine
 10
1023.06028812417
 20
144.4495932028441
 30
0.0
 11
1017.605751971402
 21
144.4495932028441
 31
0.0
  0
SOLID
  5
6EDC
330
6DF7
100
AcDbEntity
  8
标注
100
AcDbTrace
 10
1010.360288124228
 20
144.5579265361775
 30
0.0
 11
1010.360288124228
 21
144.3412598695108
 31
0.0
 12
1009.710288124228
 22
144.4495932028441
 32
0.0
 13
1009.710288124228
 23
144.4495932028441
 33
0.0
  0
SOLID
  5
6EDD
330
6DF7
100
AcDbEntity
  8
标注
100
AcDbTrace
 10
1023.06028812417
 20
144.5579265361775
 30
0.0
 11
1023.06028812417
 21
144.3412598695108
 31
0.0
 12
1023.71028812417
 22
144.4495932028441
 32
0.0
 13
1023.71028812417
 23
144.4495932028441
 33
0.0
  0
MTEXT
  5
6EDE
330
6DF7
100
AcDbEntity
  8
标注
100
AcDbMText
 10
1016.710288124199
 20
144.4495932028441
 30
0.0
 40
0.65
 41
0.0
 71
     5
 72
     1
  1
\A1;14"
 73
     1
 44
1.0
  0
POINT
  5
6EDF
330
6DF7
100
AcDbEntity
  8
DEFPOINTS
 62
     0
100
AcDbPoint
 10
1009.710288124228
 20
147.3966919853646
 30
0.0
  0
POINT
  5
6EE0
330
6DF7
100
AcDbEntity
  8
DEFPOINTS
 62
     0
100
AcDbPoint
 10
1023.71028812417
 20
147.3966919853646
 30
0.0
  0
POINT
  5
6EE1
330
6DF7
100
AcDbEntity
  8
DEFPOINTS
 62
     0
100
AcDbPoint
 10
1023.71028812417
 20
144.4495932028441
 30
0.0
  0
ENDBLK
  5
6DF9
330
6DF7
100
AcDbEntity
  8
0
100
AcDbBlockEnd
  0
BLOCK
  5
6E06
330
6E05
100
AcDbEntity
  8
0
100
AcDbBlockBegin
  2
*D7
 70
     1
 10
0.0
 20
0.0
 30
0.0
  3
*D7
  1

  0
LINE
  5
6EE2
330
6E05
100
AcDbEntity
  8
标注
370
    -2
100
AcDbLine
 10
1024.71028812416
 20
146.5166919853546
 30
0.0
 11
1024.71028812416
 21
144.1295932028442
 31
0.0
  0
LINE
  5
6EE3
330
6E05
100
AcDbEntity
  8
标注
370
    -2
100
AcDbLine
 10
1038.210288124092
 20
146.5166919853837
 30
0.0
 11
1038.210288124092
 21
144.1295932028442
 31
0.0
  0
LINE
  5
6EE4
330
6E05
100
AcDbEntity
  8
标注
370
    -2
100
AcDbLine
 10
1025.36028812416
 20
144.4495932028441
 30
0.0
 11
1029.807525504754
 21
144.4495932028441
 31
0.0
  0
LINE
  5
6EE5
330
6E05
100
AcDbEntity
  8
标注
370
    -2
100
AcDbLine
 10
1037.560288124092
 20
144.4495932028441
 30
0.0
 11
1033.113050743498
 21
144.4495932028441
 31
0.0
  0
SOLID
  5
6EE6
330
6E05
100
AcDbEntity
  8
标注
100
AcDbTrace
 10
1025.36028812416
 20
144.5579265361775
 30
0.0
 11
1025.36028812416
 21
144.3412598695108
 31
0.0
 12
1024.71028812416
 22
144.4495932028441
 32
0.0
 13
1024.71028812416
 23
144.4495932028441
 33
0.0
  0
SOLID
  5
6EE7
330
6E05
100
AcDbEntity
  8
标注
100
AcDbTrace
 10
1037.560288124092
 20
144.5579265361775
 30
0.0
 11
1037.560288124092
 21
144.3412598695108
 31
0.0
 12
1038.210288124092
 22
144.4495932028441
 32
0.0
 13
1038.210288124092
 23
144.4495932028441
 33
0.0
  0
MTEXT
  5
6EE8
330
6E05
100
AcDbEntity
  8
标注
100
AcDbMText
 10
1031.460288124126
 20
144.4495932028441
 30
0.0
 40
0.65
 41
0.0
 71
     5
 72
     1
  1
\A1;13 1/2"
 73
     1
 44
1.0
  0
POINT
  5
6EE9
330
6E05
100
AcDbEntity
  8
DEFPOINTS
 62
     0
100
AcDbPoint
 10
1024.71028812416
 20
147.3966919853546
 30
0.0
  0
POINT
  5
6EEA
330
6E05
100
AcDbEntity
  8
DEFPOINTS
 62
     0
100
AcDbPoint
 10
1038.210288124092
 20
147.3966919853836
 30
0.0
  0
POINT
  5
6EEB
330
6E05
100
AcDbEntity
  8
DEFPOINTS
 62
     0
100
AcDbPoint
 10
1038.210288124092
 20
144.4495932028441
 30
0.0
  0
ENDBLK
  5
6E07
330
6E05
100
AcDbEntity
  8
0
100
AcDbBlockEnd
  0
BLOCK
  5
6E14
330
6E13
100
AcDbEntity
  8
0
100
AcDbBlockBegin
  2
*D8
 70
     1
 10
0.0
 20
0.0
 30
0.0
  3
*D8
  1

  0
LINE
  5
6EEC
330
6E13
100
AcDbEntity
  8
标注
370
    -2
100
AcDbLine
 10
1008.710288124228
 20
146.0886773052326
 30
0.0
 11
1008.710288124228
 21
142.3791019304778
 31
0.0
  0
LINE
  5
6EED
330
6E13
100
AcDbEntity
  8
标注
370
    -2
100
AcDbLine
 10
1039.210288124111
 20
146.0886773052326
 30
0.0
 11
1039.210288124111
 21
142.3791019304778
 31
0.0
  0
LINE
  5
6EEE
330
6E13
100
AcDbEntity
  8
标注
370
    -2
100
AcDbLine
 10
1009.360288124228
 20
142.6991019304778
 30
0.0
 11
1022.277153744906
 21
142.6991019304778
 31
0.0
  0
LINE
  5
6EEF
330
6E13
100
AcDbEntity
  8
标注
370
    -2
100
AcDbLine
 10
1038.560288124111
 20
142.6991019304778
 30
0.0
 11
1025.643422503433
 21
142.6991019304778
 31
0.0
  0
SOLID
  5
6EF0
330
6E13
100
AcDbEntity
  8
标注
100
AcDbTrace
 10
1009.360288124228
 20
142.8074352638111
 30
0.0
 11
1009.360288124228
 21
142.5907685971445
 31
0.0
 12
1008.710288124228
 22
142.6991019304778
 32
0.0
 13
1008.710288124228
 23
142.6991019304778
 33
0.0
  0
SOLID
  5
6EF1
330
6E13
100
AcDbEntity
  8
标注
100
AcDbTrace
 10
1038.560288124111
 20
142.8074352638111
 30
0.0
 11
1038.560288124111
 21
142.5907685971445
 31
0.0
 12
1039.210288124111
 22
142.6991019304778
 32
0.0
 13
1039.210288124111
 23
142.6991019304778
 33
0.0
  0
MTEXT
  5
6EF2
330
6E13
100
AcDbEntity
  8
标注
100
AcDbMText
 10
1023.96028812417
 20
142.6991019304778
 30
0.0
 40
0.65
 41
0.0
 71
     5
 72
     1
  1
\A1;30 1/2"
 73
     1
 44
1.0
  0
POINT
  5
6EF3
330
6E13
100
AcDbEntity
  8
DEFPOINTS
 62
     0
100
AcDbPoint
 10
1008.710288124228
 20
146.9686773052325
 30
0.0
  0
POINT
  5
6EF4
330
6E13
100
AcDbEntity
  8
DEFPOINTS
 62
     0
100
AcDbPoint
 10
1039.210288124111
 20
146.9686773052325
 30
0.0
  0
POINT
  5
6EF5
330
6E13
100
AcDbEntity
  8
DEFPOINTS
 62
     0
100
AcDbPoint
 10
1039.210288124111
 20
142.6991019304778
 30
0.0
  0
ENDBLK
  5
6E15
330
6E13
100
AcDbEntity
  8
0
100
AcDbBlockEnd
  0
BLOCK
  5
6E22
330
6E21
100
AcDbEntity
  8
0
100
AcDbBlockBegin
  2
*D9
 70
     1
 10
0.0
 20
0.0
 30
0.0
  3
*D9
  1

  0
LINE
  5
6EF6
330
6E21
100
AcDbEntity
  8
标注
370
    -2
100
AcDbLine
 10
1038.696587336692
 20
147.0029911979454
 30
0.0
 11
1041.364624893784
 21
147.0029911979454
 31
0.0
  0
LINE
  5
6EF7
330
6E21
100
AcDbEntity
  8
标注
370
    -2
100
AcDbLine
 10
1038.696587336692
 20
163.002991197897
 30
0.0
 11
1041.364624893784
 21
163.002991197897
 31
0.0
  0
LINE
  5
6EF8
330
6E21
100
AcDbEntity
  8
标注
370
    -2
100
AcDbLine
 10
1041.044624893784
 20
147.6529911979454
 30
0.0
 11
1041.044624893784
 21
154.1075273507179
 31
0.0
  0
LINE
  5
6EF9
330
6E21
100
AcDbEntity
  8
标注
370
    -2
100
AcDbLine
 10
1041.044624893784
 20
162.3529911978971
 30
0.0
 11
1041.044624893784
 21
155.8984550451244
 31
0.0
  0
SOLID
  5
6EFA
330
6E21
100
AcDbEntity
  8
标注
100
AcDbTrace
 10
1040.93629156045
 20
147.6529911979454
 30
0.0
 11
1041.152958227117
 21
147.6529911979454
 31
0.0
 12
1041.044624893784
 22
147.0029911979454
 32
0.0
 13
1041.044624893784
 23
147.0029911979454
 33
0.0
  0
SOLID
  5
6EFB
330
6E21
100
AcDbEntity
  8
标注
100
AcDbTrace
 10
1040.93629156045
 20
162.3529911978971
 30
0.0
 11
1041.152958227117
 21
162.3529911978971
 31
0.0
 12
1041.044624893784
 22
163.002991197897
 32
0.0
 13
1041.044624893784
 23
163.002991197897
 33
0.0
  0
MTEXT
  5
6EFC
330
6E21
100
AcDbEntity
  8
标注
100
AcDbMText
 10
1041.044624893784
 20
155.0029911979214
 30
0.0
 40
0.65
 41
0.0
 71
     5
 72
     1
  1
\A1;16"
 11
0.0000000000000001
 21
1.0
 31
0.0
 73
     1
 44
1.0
  0
POINT
  5
6EFD
330
6E21
100
AcDbEntity
  8
DEFPOINTS
 62
     0
100
AcDbPoint
 10
1037.816587336692
 20
147.0029911979454
 30
0.0
  0
POINT
  5
6EFE
330
6E21
100
AcDbEntity
  8
DEFPOINTS
 62
     0
100
AcDbPoint
 10
1037.816587336692
 20
163.002991197897
 30
0.0
  0
POINT
  5
6EFF
330
6E21
100
AcDbEntity
  8
DEFPOINTS
 62
     0
100
AcDbPoint
 10
1041.044624893784
 20
163.002991197897
 30
0.0
  0
ENDBLK
  5
6E23
330
6E21
100
AcDbEntity
  8
0
100
AcDbBlockEnd
  0
BLOCK
  5
6E30
330
6E2F
100
AcDbEntity
  8
0
100
AcDbBlockBegin
  2
*D10
 70
     1
 10
0.0
 20
0.0
 30
0.0
  3
*D10
  1

  0
LINE
  5
6F00
330
6E2F
100
AcDbEntity
  8
标注
370
    -2
100
AcDbLine
 10
1039.090288124092
 20
146.0029911979454
 30
0.0
 11
1043.101448051936
 21
146.0029911979454
 31
0.0
  0
LINE
  5
6F01
330
6E2F
100
AcDbEntity
  8
标注
370
    -2
100
AcDbLine
 10
1039.090288124092
 20
164.0029911978872
 30
0.0
 11
1043.101448051936
 21
164.0029911978872
 31
0.0
  0
LINE
  5
6F02
330
6E2F
100
AcDbEntity
  8
标注
370
    -2
100
AcDbLine
 10
1042.781448051936
 20
146.6529911979454
 30
0.0
 11
1042.781448051936
 21
154.107527350713
 31
0.0
  0
LINE
  5
6F03
330
6E2F
100
AcDbEntity
  8
标注
370
    -2
100
AcDbLine
 10
1042.781448051936
 20
163.3529911978872
 30
0.0
 11
1042.781448051936
 21
155.8984550451195
 31
0.0
  0
SOLID
  5
6F04
330
6E2F
100
AcDbEntity
  8
标注
100
AcDbTrace
 10
1042.673114718603
 20
146.6529911979454
 30
0.0
 11
1042.88978138527
 21
146.6529911979454
 31
0.0
 12
1042.781448051936
 22
146.0029911979454
 32
0.0
 13
1042.781448051936
 23
146.0029911979454
 33
0.0
  0
SOLID
  5
6F05
330
6E2F
100
AcDbEntity
  8
标注
100
AcDbTrace
 10
1042.673114718603
 20
163.3529911978872
 30
0.0
 11
1042.88978138527
 21
163.3529911978872
 31
0.0
 12
1042.781448051936
 22
164.0029911978872
 32
0.0
 13
1042.781448051936
 23
164.0029911978872
 33
0.0
  0
MTEXT
  5
6F06
330
6E2F
100
AcDbEntity
  8
标注
100
AcDbMText
 10
1042.781448051936
 20
155.0029911979164
 30
0.0
 40
0.65
 41
0.0
 71
     5
 72
     1
  1
\A1;18"
 11
0.0000000000000001
 21
1.0
 31
0.0
 73
     1
 44
1.0
  0
POINT
  5
6F07
330
6E2F
100
AcDbEntity
  8
DEFPOINTS
 62
     0
100
AcDbPoint
 10
1038.210288124092
 20
146.0029911979454
 30
0.0
  0
POINT
  5
6F08
330
6E2F
100
AcDbEntity
  8
DEFPOINTS
 62
     0
100
AcDbPoint
 10
1038.210288124092
 20
164.0029911978872
 30
0.0
  0
POINT
  5
6F09
330
6E2F
100
AcDbEntity
  8
DEFPOINTS
 62
     0
100
AcDbPoint
 10
1042.781448051936
 20
164.0029911978872
 30
0.0
  0
ENDBLK
  5
6E31
330
6E2F
100
AcDbEntity
  8
0
100
AcDbBlockEnd
  0
BLOCK
  5
6E3E
330
6E3D
100
AcDbEntity
  8
0
100
AcDbBlockBegin
  2
*D11
 70
     1
 10
0.0
 20
0.0
 30
0.0
  3
*D11
  1

  0
LINE
  5
6F0A
330
6E3D
100
AcDbEntity
  8
标注
370
    -2
100
AcDbLine
 10
1009.223988911618
 20
147.0029911979454
 30
0.0
 11
1006.745418273095
 21
147.0029911979454
 31
0.0
  0
LINE
  5
6F0B
330
6E3D
100
AcDbEntity
  8
标注
370
    -2
100
AcDbLine
 10
1009.223988911618
 20
165.0029911978872
 30
0.0
 11
1006.745418273095
 21
165.0029911978872
 31
0.0
  0
LINE
  5
6F0C
330
6E3D
100
AcDbEntity
  8
标注
370
    -2
100
AcDbLine
 10
1007.065418273095
 20
147.6529911979454
 30
0.0
 11
1007.065418273095
 21
155.107527350713
 31
0.0
  0
LINE
  5
6F0D
330
6E3D
100
AcDbEntity
  8
标注
370
    -2
100
AcDbLine
 10
1007.065418273095
 20
164.3529911978871
 30
0.0
 11
1007.065418273095
 21
156.8984550451195
 31
0.0
  0
SOLID
  5
6F0E
330
6E3D
100
AcDbEntity
  8
标注
100
AcDbTrace
 10
1006.957084939761
 20
147.6529911979454
 30
0.0
 11
1007.173751606428
 21
147.6529911979454
 31
0.0
 12
1007.065418273095
 22
147.0029911979454
 32
0.0
 13
1007.065418273095
 23
147.0029911979454
 33
0.0
  0
SOLID
  5
6F0F
330
6E3D
100
AcDbEntity
  8
标注
100
AcDbTrace
 10
1006.957084939761
 20
164.3529911978871
 30
0.0
 11
1007.173751606428
 21
164.3529911978871
 31
0.0
 12
1007.065418273095
 22
165.0029911978872
 32
0.0
 13
1007.065418273095
 23
165.0029911978872
 33
0.0
  0
MTEXT
  5
6F10
330
6E3D
100
AcDbEntity
  8
标注
100
AcDbMText
 10
1007.065418273095
 20
156.0029911979164
 30
0.0
 40
0.65
 41
0.0
 71
     5
 72
     1
  1
\A1;18"
 11
0.0000000000000001
 21
1.0
 31
0.0
 73
     1
 44
1.0
  0
POINT
  5
6F11
330
6E3D
100
AcDbEntity
  8
DEFPOINTS
 62
     0
100
AcDbPoint
 10
1010.103988911618
 20
147.0029911979454
 30
0.0
  0
POINT
  5
6F12
330
6E3D
100
AcDbEntity
  8
DEFPOINTS
 62
     0
100
AcDbPoint
 10
1010.103988911618
 20
165.0029911978872
 30
0.0
  0
POINT
  5
6F13
330
6E3D
100
AcDbEntity
  8
DEFPOINTS
 62
     0
100
AcDbPoint
 10
1007.065418273095
 20
165.0029911978872
 30
0.0
  0
ENDBLK
  5
6E3F
330
6E3D
100
AcDbEntity
  8
0
100
AcDbBlockEnd
  0
BLOCK
  5
6E4C
330
6E4B
100
AcDbEntity
  8
0
100
AcDbBlockBegin
  2
*D12
 70
     1
 10
0.0
 20
0.0
 30
0.0
  3
*D12
  1

  0
LINE
  5
6F14
330
6E4B
100
AcDbEntity
  8
标注
370
    -2
100
AcDbLine
 10
1008.830288124228
 20
146.0029911979454
 30
0.0
 11
1005.055291516582
 21
146.0029911979454
 31
0.0
  0
LINE
  5
6F15
330
6E4B
100
AcDbEntity
  8
标注
370
    -2
100
AcDbLine
 10
1008.830288124228
 20
166.002991197858
 30
0.0
 11
1005.055291516582
 21
166.002991197858
 31
0.0
  0
LINE
  5
6F16
330
6E4B
100
AcDbEntity
  8
标注
370
    -2
100
AcDbLine
 10
1005.375291516581
 20
146.6529911979454
 30
0.0
 11
1005.375291516581
 21
155.0713916071785
 31
0.0
  0
LINE
  5
6F17
330
6E4B
100
AcDbEntity
  8
标注
370
    -2
100
AcDbLine
 10
1005.375291516581
 20
165.352991197858
 30
0.0
 11
1005.375291516581
 21
156.9345907886248
 31
0.0
  0
SOLID
  5
6F18
330
6E4B
100
AcDbEntity
  8
标注
100
AcDbTrace
 10
1005.266958183248
 20
146.6529911979454
 30
0.0
 11
1005.483624849915
 21
146.6529911979454
 31
0.0
 12
1005.375291516581
 22
146.0029911979454
 32
0.0
 13
1005.375291516581
 23
146.0029911979454
 33
0.0
  0
SOLID
  5
6F19
330
6E4B
100
AcDbEntity
  8
标注
100
AcDbTrace
 10
1005.266958183248
 20
165.352991197858
 30
0.0
 11
1005.483624849915
 21
165.352991197858
 31
0.0
 12
1005.375291516581
 22
166.002991197858
 32
0.0
 13
1005.375291516581
 23
166.002991197858
 33
0.0
  0
MTEXT
  5
6F1A
330
6E4B
100
AcDbEntity
  8
标注
100
AcDbMText
 10
1005.375291516581
 20
156.0029911979019
 30
0.0
 40
0.65
 41
0.0
 71
     5
 72
     1
  1
\A1;20"
 11
0.0000000000000001
 21
1.0
 31
0.0
 73
     1
 44
1.0
  0
POINT
  5
6F1B
330
6E4B
100
AcDbEntity
  8
DEFPOINTS
 62
     0
100
AcDbPoint
 10
1009.710288124228
 20
146.0029911979454
 30
0.0
  0
POINT
  5
6F1C
330
6E4B
100
AcDbEntity
  8
DEFPOINTS
 62
     0
100
AcDbPoint
 10
1009.710288124228
 20
166.002991197858
 30
0.0
  0
POINT
  5
6F1D
330
6E4B
100
AcDbEntity
  8
DEFPOINTS
 62
     0
100
AcDbPoint
 10
1005.375291516581
 20
166.002991197858
 30
0.0
  0
ENDBLK
  5
6E4D
330
6E4B
100
AcDbEntity
  8
0
100
AcDbBlockEnd
  0
BLOCK
  5
6E5A
330
6E59
100
AcDbEntity
  8
0
100
AcDbBlockBegin
  2
*D13
 70
     1
 10
0.0
 20
0.0
 30
0.0
  3
*D13
  1

  0
LINE
  5
6F1E
330
6E59
100
AcDbEntity
  8
标注
370
    -2
100
AcDbLine
 10
1040.090288124112
 20
185.7543758390301
 30
0.0
 11
1040.994697748532
 21
185.7543758390301
 31
0.0
  0
LINE
  5
6F1F
330
6E59
100
AcDbEntity
  8
标注
370
    -2
100
AcDbLine
 10
1038.725723289982
 20
177.8161041855118
 30
0.0
 11
1040.994697748532
 21
177.8161041855118
 31
0.0
  0
LINE
  5
6F20
330
6E59
100
AcDbEntity
  8
标注
370
    -2
100
AcDbLine
 10
1040.674697748531
 20
185.10437583903
 30
0.0
 11
1040.674697748531
 21
182.4592338731168
 31
0.0
  0
LINE
  5
6F21
330
6E59
100
AcDbEntity
  8
标注
370
    -2
100
AcDbLine
 10
1040.674697748531
 20
178.4661041855118
 30
0.0
 11
1040.674697748531
 21
181.1112461514251
 31
0.0
  0
SOLID
  5
6F22
330
6E59
100
AcDbEntity
  8
标注
100
AcDbTrace
 10
1040.566364415198
 20
185.10437583903
 30
0.0
 11
1040.783031081865
 21
185.10437583903
 31
0.0
 12
1040.674697748531
 22
185.7543758390301
 32
0.0
 13
1040.674697748531
 23
185.7543758390301
 33
0.0
  0
SOLID
  5
6F23
330
6E59
100
AcDbEntity
  8
标注
100
AcDbTrace
 10
1040.566364415198
 20
178.4661041855118
 30
0.0
 11
1040.783031081865
 21
178.4661041855118
 31
0.0
 12
1040.674697748531
 22
177.8161041855118
 32
0.0
 13
1040.674697748531
 23
177.8161041855118
 33
0.0
  0
MTEXT
  5
6F24
330
6E59
100
AcDbEntity
  8
标注
100
AcDbMText
 10
1040.674697748531
 20
181.7852400122711
 30
0.0
 40
0.65
 41
0.0
 71
     5
 72
     1
  1
\A1;8"
 11
0.0000000000000001
 21
1.0
 31
0.0
 73
     1
 44
1.0
  0
POINT
  5
6F25
330
6E59
100
AcDbEntity
  8
DEFPOINTS
 62
     0
100
AcDbPoint
 10
1039.210288124111
 20
185.7543758390301
 30
0.0
  0
POINT
  5
6F26
330
6E59
100
AcDbEntity
  8
DEFPOINTS
 62
     0
100
AcDbPoint
 10
1037.845723289982
 20
177.8161041855118
 30
0.0
  0
POINT
  5
6F27
330
6E59
100
AcDbEntity
  8
DEFPOINTS
 62
     0
100
AcDbPoint
 10
1040.674697748531
 20
177.8161041855118
 30
0.0
  0
ENDBLK
  5
6E5B
330
6E59
100
AcDbEntity
  8
0
100
AcDbBlockEnd
  0
BLOCK
  5
6E7C
330
6E7B
100
AcDbEntity
  8
0
100
AcDbBlockBegin
  2
*D14
 70
     1
 10
0.0
 20
0.0
 30
0.0
  3
*D14
  1

  0
LINE
  5
6F28
330
6E7B
100
AcDbEntity
  8
标注
370
    -2
100
AcDbLine
 10
1007.830288124548
 20
185.7543758390301
 30
0.0
 11
1006.362053868092
 21
185.7543758390301
 31
0.0
  0
LINE
  5
6F29
330
6E7B
100
AcDbEntity
  8
标注
370
    -2
100
AcDbLine
 10
1007.830288124548
 20
176.7543758390301
 30
0.0
 11
1006.362053868092
 21
176.7543758390301
 31
0.0
  0
LINE
  5
6F2A
330
6E7B
100
AcDbEntity
  8
标注
370
    -2
100
AcDbLine
 10
1006.682053868092
 20
185.10437583903
 30
0.0
 11
1006.682053868092
 21
181.9279263165199
 31
0.0
  0
LINE
  5
6F2B
330
6E7B
100
AcDbEntity
  8
标注
370
    -2
100
AcDbLine
 10
1006.682053868092
 20
177.4043758390301
 30
0.0
 11
1006.682053868092
 21
180.5808253615404
 31
0.0
  0
SOLID
  5
6F2C
330
6E7B
100
AcDbEntity
  8
标注
100
AcDbTrace
 10
1006.573720534758
 20
185.10437583903
 30
0.0
 11
1006.790387201425
 21
185.10437583903
 31
0.0
 12
1006.682053868092
 22
185.7543758390301
 32
0.0
 13
1006.682053868092
 23
185.7543758390301
 33
0.0
  0
SOLID
  5
6F2D
330
6E7B
100
AcDbEntity
  8
标注
100
AcDbTrace
 10
1006.573720534758
 20
177.4043758390301
 30
0.0
 11
1006.790387201425
 21
177.4043758390301
 31
0.0
 12
1006.682053868092
 22
176.7543758390301
 32
0.0
 13
1006.682053868092
 23
176.7543758390301
 33
0.0
  0
MTEXT
  5
6F2E
330
6E7B
100
AcDbEntity
  8
标注
100
AcDbMText
 10
1006.682053868092
 20
181.2543758390303
 30
0.0
 40
0.65
 41
0.0
 71
     5
 72
     1
  1
\A1;9"
 11
0.0000000000000001
 21
1.0
 31
0.0
 73
     1
 44
1.0
  0
POINT
  5
6F2F
330
6E7B
100
AcDbEntity
  8
DEFPOINTS
 62
     0
100
AcDbPoint
 10
1008.710288124548
 20
185.7543758390301
 30
0.0
  0
POINT
  5
6F30
330
6E7B
100
AcDbEntity
  8
DEFPOINTS
 62
     0
100
AcDbPoint
 10
1008.710288124548
 20
176.7543758390301
 30
0.0
  0
POINT
  5
6F31
330
6E7B
100
AcDbEntity
  8
DEFPOINTS
 62
     0
100
AcDbPoint
 10
1006.682053868092
 20
176.7543758390301
 30
0.0
  0
ENDBLK
  5
6E7D
330
6E7B
100
AcDbEntity
  8
0
100
AcDbBlockEnd
  0
BLOCK
  5
6E8A
330
6E89
100
AcDbEntity
  8
0
100
AcDbBlockBegin
  2
*D15
 70
     1
 10
0.0
 20
0.0
 30
0.0
  3
*D15
  1

  0
LINE
  5
6F32
330
6E89
100
AcDbEntity
  8
标注
370
    -2
100
AcDbLine
 10
1009.964051694382
 20
176.4762545283475
 30
0.0
 11
1009.503870816428
 21
176.0171972774892
 31
0.0
  0
MTEXT
  5
6F33
330
6E89
100
AcDbEntity
  8
标注
100
AcDbMText
 10
1011.272397653072
 20
178.2512385999863
 30
0.0
 40
0.65
 41
0.0
 71
     5
 72
     1
  1
\A1;R3/8"
 11
0.7079705814675492
 21
0.7062419243973701
 31
0.0
 73
     1
 44
1.0
  0
LINE
  5
6F34
330
6E89
100
AcDbEntity
  8
标注
370
    -2
100
AcDbLine
 10
1010.702961147716
 20
177.2133597809361
 30
0.0
 11
1010.424232572336
 21
176.9353117792057
 31
0.0
  0
SOLID
  5
6F35
330
6E89
100
AcDbEntity
  8
标注
100
AcDbTrace
 10
1009.887542152572
 20
176.5529513413398
 30
0.0
 11
1010.040561236191
 21
176.3995577153552
 31
0.0
 12
1010.424232572336
 22
176.9353117792057
 32
0.0
 13
1010.424232572336
 23
176.9353117792057
 33
0.0
  0
POINT
  5
6F36
330
6E89
100
AcDbEntity
  8
DEFPOINTS
 62
     0
100
AcDbPoint
 10
1010.424232572336
 20
176.9353117792057
 30
0.0
  0
POINT
  5
6F37
330
6E89
100
AcDbEntity
  8
DEFPOINTS
 62
     0
100
AcDbPoint
 10
1010.702961147716
 20
177.2133597809361
 30
0.0
  0
ENDBLK
  5
6E8B
330
6E89
100
AcDbEntity
  8
0
100
AcDbBlockEnd
  0
BLOCK
  5
6E94
330
6E93
100
AcDbEntity
  8
0
100
AcDbBlockBegin
  2
*D16
 70
     1
 10
0.0
 20
0.0
 30
0.0
  3
*D16
  1

  0
LINE
  5
6F38
330
6E93
100
AcDbEntity
  8
标注
370
    -2
100
AcDbLine
 10
1024.947305626549
 20
177.4264608794609
 30
0.0
 11
1024.520300447961
 21
176.9363929479868
 31
0.0
  0
MTEXT
  5
6F39
330
6E93
100
AcDbEntity
  8
标注
100
AcDbMText
 10
1026.161982373129
 20
179.2928120157265
 30
0.0
 40
0.65
 41
0.0
 71
     5
 72
     1
  1
\A1;R3/8"
 11
0.6569310439812118
 21
0.753950663806164
 31
0.0
 73
     1
 44
1.0
  0
LINE
  5
6F3A
330
6E93
100
AcDbEntity
  8
标注
370
    -2
100
AcDbLine
 10
1025.632945074419
 20
178.213359780936
 30
0.0
 11
1025.374310805136
 21
177.9165288109349
 31
0.0
  0
SOLID
  5
6F3B
330
6E93
100
AcDbEntity
  8
标注
100
AcDbTrace
 10
1024.86562763797
 20
177.4976284092256
 30
0.0
 11
1025.028983615128
 21
177.3552933496963
 31
0.0
 12
1025.374310805136
 22
177.9165288109349
 32
0.0
 13
1025.374310805136
 23
177.9165288109349
 33
0.0
  0
POINT
  5
6F3C
330
6E93
100
AcDbEntity
  8
DEFPOINTS
 62
     0
100
AcDbPoint
 10
1025.374310805136
 20
177.9165288109349
 30
0.0
  0
POINT
  5
6F3D
330
6E93
100
AcDbEntity
  8
DEFPOINTS
 62
     0
100
AcDbPoint
 10
1025.632945074419
 20
178.213359780936
 30
0.0
  0
ENDBLK
  5
6E95
330
6E93
100
AcDbEntity
  8
0
100
AcDbBlockEnd
  0
BLOCK
  5
707F
330
707E
100
AcDbEntity
  8
0
100
AcDbBlockBegin
  2
*D17
 70
     1
 10
0.0
 20
0.0
 30
0.0
  3
*D17
  1

  0
LINE
  5
7081
330
707E
100
AcDbEntity
  8
标注
370
    -2
100
AcDbLine
 10
1079.180281719956
 20
181.6483556837381
 30
0.0
 11
1080.862593747906
 21
181.6483556837381
 31
0.0
  0
LINE
  5
7082
330
707E
100
AcDbEntity
  8
标注
370
    -2
100
AcDbLine
 10
1079.180281719956
 20
172.6483556837381
 30
0.0
 11
1080.862593747906
 21
172.6483556837381
 31
0.0
  0
LINE
  5
7083
330
707E
100
AcDbEntity
  8
标注
370
    -2
100
AcDbLine
 10
1080.542593747907
 20
180.9983556837381
 30
0.0
 11
1080.542593747907
 21
177.8219061612279
 31
0.0
  0
LINE
  5
7084
330
707E
100
AcDbEntity
  8
标注
370
    -2
100
AcDbLine
 10
1080.542593747907
 20
173.2983556837381
 30
0.0
 11
1080.542593747907
 21
176.4748052062483
 31
0.0
  0
SOLID
  5
7085
330
707E
100
AcDbEntity
  8
标注
100
AcDbTrace
 10
1080.434260414573
 20
180.9983556837381
 30
0.0
 11
1080.65092708124
 21
180.9983556837381
 31
0.0
 12
1080.542593747907
 22
181.6483556837381
 32
0.0
 13
1080.542593747907
 23
181.6483556837381
 33
0.0
  0
SOLID
  5
7086
330
707E
100
AcDbEntity
  8
标注
100
AcDbTrace
 10
1080.434260414573
 20
173.2983556837381
 30
0.0
 11
1080.65092708124
 21
173.2983556837381
 31
0.0
 12
1080.542593747907
 22
172.6483556837381
 32
0.0
 13
1080.542593747907
 23
172.6483556837381
 33
0.0
  0
MTEXT
  5
7087
330
707E
100
AcDbEntity
  8
标注
100
AcDbMText
 10
1080.542593747907
 20
177.1483556837383
 30
0.0
 40
0.65
 41
0.0
 71
     5
 72
     1
  1
\A1;9"
 11
0.0000000000000001
 21
1.0
 31
0.0
 73
     1
 44
1.0
  0
POINT
  5
7088
330
707E
100
AcDbEntity
  8
DEFPOINTS
 62
     0
100
AcDbPoint
 10
1078.300281719956
 20
181.6483556837381
 30
0.0
  0
POINT
  5
7089
330
707E
100
AcDbEntity
  8
DEFPOINTS
 62
     0
100
AcDbPoint
 10
1078.300281719956
 20
172.6483556837381
 30
0.0
  0
POINT
  5
708A
330
707E
100
AcDbEntity
  8
DEFPOINTS
 62
     0
100
AcDbPoint
 10
1080.542593747907
 20
172.6483556837381
 30
0.0
  0
ENDBLK
  5
7080
330
707E
100
AcDbEntity
  8
0
100
AcDbBlockEnd
  0
BLOCK
  5
708D
330
708C
100
AcDbEntity
  8
0
100
AcDbBlockBegin
  2
*D18
 70
     1
 10
0.0
 20
0.0
 30
0.0
  3
*D18
  1

  0
ARC
  5
70AC
330
708C
100
AcDbEntity
  8
标注
  6
Continuous
 62
     3
370
    13
100
AcDbCircle
 10
1077.300281719974
 20
181.6483556837381
 30
0.0
 40
2.738119904026787
100
AcDbArc
 50
193.6335384897481
 51
207.577830060386
  0
ARC
  5
70AD
330
708C
100
AcDbEntity
  8
标注
  6
Continuous
 62
     3
370
    13
100
AcDbCircle
 10
1077.300281719974
 20
181.6483556837381
 30
0.0
 40
2.738119904026787
100
AcDbArc
 50
238.4170805609163
 51
252.3613721315534
  0
SOLID
  5
70AE
330
708C
100
AcDbEntity
  8
标注
 62
     3
100
AcDbTrace
 10
1074.531745790292
 20
180.9900920765908
 30
0.0
 11
1074.746880799402
 21
181.0158092362241
 31
0.0
 12
1074.562161815947
 22
181.6483556837379
 32
0.0
 13
1074.562161815947
 23
181.6483556837379
 33
0.0
  0
SOLID
  5
70AF
330
708C
100
AcDbEntity
  8
标注
 62
     3
100
AcDbTrace
 10
1076.490937545174
 20
179.1453708104001
 30
0.0
 11
1076.450257068023
 21
178.9325574103914
 31
0.0
 12
1077.109037506624
 22
178.9169226789421
 32
0.0
 13
1077.109037506624
 23
178.9169226789421
 33
0.0
  0
MTEXT
  5
70B0
102
{ACAD_XDICTIONARY
360
7AE9
102
}
330
708C
100
AcDbEntity
  8
标注
 62
     3
100
AcDbMText
 10
1075.297664657736
 20
179.7810513403429
 30
0.0
 40
0.65
 41
0.0
 71
     5
 72
     1
  1
\A1;86\U+00B0
 11
0.6819658776261142
 21
-0.7313839906325841
 31
0.0
 73
     1
 44
1.0
  0
POINT
  5
70B1
330
708C
100
AcDbEntity
  8
DEFPOINTS
 62
     0
100
AcDbPoint
 10
1074.897746883068
 20
180.3349147957348
 30
0.0
  0
POINT
  5
70B2
330
708C
100
AcDbEntity
  8
DEFPOINTS
 62
     0
100
AcDbPoint
 10
1062.208506911422
 20
181.6483556837382
 30
0.0
  0
POINT
  5
70B3
330
708C
100
AcDbEntity
  8
DEFPOINTS
 62
     0
100
AcDbPoint
 10
1077.293871700804
 20
181.5568050029876
 30
0.0
  0
POINT
  5
70B4
330
708C
100
AcDbEntity
  8
DEFPOINTS
 62
     0
100
AcDbPoint
 10
1076.700348007504
 20
173.0798415612559
 30
0.0
  0
POINT
  5
70B5
330
708C
100
AcDbEntity
  8
DEFPOINTS
 62
     0
100
AcDbPoint
 10
1077.392056528548
 20
181.6483556837381
 30
0.0
  0
ENDBLK
  5
708E
330
708C
100
AcDbEntity
  8
0
100
AcDbBlockEnd
  0
BLOCK
  5
70C4
330
70C3
100
AcDbEntity
  8
0
100
AcDbBlockBegin
  2
*D19
 70
     1
 10
0.0
 20
0.0
 30
0.0
  3
*D19
  1

  0
LINE
  5
70C6
330
70C3
100
AcDbEntity
  8
标注
370
    -2
100
AcDbLine
 10
1062.517119592657
 20
172.4092055752737
 30
0.0
 11
1062.033941986434
 21
171.9744189599724
 31
0.0
  0
MTEXT
  5
70C7
330
70C3
100
AcDbEntity
  8
标注
100
AcDbMText
 10
1061.990755455854
 20
172.6820784371186
 30
0.0
 40
0.65
 41
0.0
 71
     5
 72
     1
  1
\A1;R3/8"
 11
0.7433501634192004
 21
0.6689024850788404
 31
0.0
 73
     1
 44
1.0
  0
LINE
  5
70C8
330
70C3
100
AcDbEntity
  8
标注
370
    -2
100
AcDbLine
 10
1063.292954743531
 20
173.1073396256443
 30
0.0
 11
1063.000297198879
 21
172.843992190575
 31
0.0
  0
SOLID
  5
70C9
330
70C3
100
AcDbEntity
  8
标注
100
AcDbTrace
 10
1062.444655156773
 20
172.4897351763108
 30
0.0
 11
1062.58958402854
 21
172.3286759742366
 31
0.0
 12
1063.000297198879
 22
172.843992190575
 32
0.0
 13
1063.000297198879
 23
172.843992190575
 33
0.0
  0
POINT
  5
70CA
330
70C3
100
AcDbEntity
  8
DEFPOINTS
 62
     0
100
AcDbPoint
 10
1063.000297198879
 20
172.843992190575
 30
0.0
  0
POINT
  5
70CB
330
70C3
100
AcDbEntity
  8
DEFPOINTS
 62
     0
100
AcDbPoint
 10
1063.292954743531
 20
173.1073396256443
 30
0.0
  0
ENDBLK
  5
70C5
330
70C3
100
AcDbEntity
  8
0
100
AcDbBlockEnd
  0
BLOCK
  5
70CE
330
70CD
100
AcDbEntity
  8
0
100
AcDbBlockBegin
  2
*D20
 70
     1
 10
0.0
 20
0.0
 30
0.0
  3
*D20
  1

  0
LINE
  5
70D0
330
70CD
100
AcDbEntity
  8
标注
370
    -2
100
AcDbLine
 10
1062.300281720034
 20
144.8295933745531
 30
0.0
 11
1062.300281720034
 21
142.0845770921852
 31
0.0
  0
LINE
  5
70D1
330
70CD
100
AcDbEntity
  8
标注
370
    -2
100
AcDbLine
 10
1077.300281719956
 20
144.8295933745531
 30
0.0
 11
1077.300281719956
 21
142.0845770921852
 31
0.0
  0
LINE
  5
70D2
330
70CD
100
AcDbEntity
  8
标注
370
    -2
100
AcDbLine
 10
1062.950281720034
 20
142.4045770921852
 30
0.0
 11
1068.904817872792
 21
142.4045770921852
 31
0.0
  0
LINE
  5
70D3
330
70CD
100
AcDbEntity
  8
标注
370
    -2
100
AcDbLine
 10
1076.650281719956
 20
142.4045770921852
 30
0.0
 11
1070.695745567198
 21
142.4045770921852
 31
0.0
  0
SOLID
  5
70D4
330
70CD
100
AcDbEntity
  8
标注
100
AcDbTrace
 10
1062.950281720034
 20
142.5129104255185
 30
0.0
 11
1062.950281720034
 21
142.2962437588518
 31
0.0
 12
1062.300281720034
 22
142.4045770921852
 32
0.0
 13
1062.300281720034
 23
142.4045770921852
 33
0.0
  0
SOLID
  5
70D5
330
70CD
100
AcDbEntity
  8
标注
100
AcDbTrace
 10
1076.650281719956
 20
142.5129104255185
 30
0.0
 11
1076.650281719956
 21
142.2962437588518
 31
0.0
 12
1077.300281719956
 22
142.4045770921852
 32
0.0
 13
1077.300281719956
 23
142.4045770921852
 33
0.0
  0
MTEXT
  5
70D6
330
70CD
100
AcDbEntity
  8
标注
100
AcDbMText
 10
1069.800281719995
 20
142.4045770921852
 30
0.0
 40
0.65
 41
0.0
 71
     5
 72
     1
  1
\A1;15"
 73
     1
 44
1.0
  0
POINT
  5
70D7
330
70CD
100
AcDbEntity
  8
DEFPOINTS
 62
     0
100
AcDbPoint
 10
1062.300281720034
 20
145.7095933745531
 30
0.0
  0
POINT
  5
70D8
330
70CD
100
AcDbEntity
  8
DEFPOINTS
 62
     0
100
AcDbPoint
 10
1077.300281719956
 20
145.7095933745531
 30
0.0
  0
POINT
  5
70D9
330
70CD
100
AcDbEntity
  8
DEFPOINTS
 62
     0
100
AcDbPoint
 10
1077.300281719956
 20
142.4045770921852
 30
0.0
  0
ENDBLK
  5
70CF
330
70CD
100
AcDbEntity
  8
0
100
AcDbBlockEnd
  0
BLOCK
  5
70DC
330
70DB
100
AcDbEntity
  8
0
100
AcDbBlockBegin
  2
*D21
 70
     1
 10
0.0
 20
0.0
 30
0.0
  3
*D21
  1

  0
LINE
  5
70DE
330
70DB
100
AcDbEntity
  8
标注
370
    -2
100
AcDbLine
 10
1061.300281720015
 20
144.2834684581846
 30
0.0
 11
1061.300281720015
 21
140.4372530307021
 31
0.0
  0
LINE
  5
70DF
330
70DB
100
AcDbEntity
  8
标注
370
    -2
100
AcDbLine
 10
1078.300281719958
 20
144.2834684581846
 30
0.0
 11
1078.300281719958
 21
140.4372530307021
 31
0.0
  0
LINE
  5
70E0
330
70DB
100
AcDbEntity
  8
标注
370
    -2
100
AcDbLine
 10
1061.950281720015
 20
140.7572530307021
 30
0.0
 11
1068.904817872783
 21
140.7572530307021
 31
0.0
  0
LINE
  5
70E1
330
70DB
100
AcDbEntity
  8
标注
370
    -2
100
AcDbLine
 10
1077.650281719958
 20
140.7572530307021
 30
0.0
 11
1070.69574556719
 21
140.7572530307021
 31
0.0
  0
SOLID
  5
70E2
330
70DB
100
AcDbEntity
  8
标注
100
AcDbTrace
 10
1061.950281720015
 20
140.8655863640354
 30
0.0
 11
1061.950281720015
 21
140.6489196973688
 31
0.0
 12
1061.300281720015
 22
140.7572530307021
 32
0.0
 13
1061.300281720015
 23
140.7572530307021
 33
0.0
  0
SOLID
  5
70E3
330
70DB
100
AcDbEntity
  8
标注
100
AcDbTrace
 10
1077.650281719958
 20
140.8655863640354
 30
0.0
 11
1077.650281719958
 21
140.6489196973688
 31
0.0
 12
1078.300281719958
 22
140.7572530307021
 32
0.0
 13
1078.300281719958
 23
140.7572530307021
 33
0.0
  0
MTEXT
  5
70E4
330
70DB
100
AcDbEntity
  8
标注
100
AcDbMText
 10
1069.800281719986
 20
140.7572530307021
 30
0.0
 40
0.65
 41
0.0
 71
     5
 72
     1
  1
\A1;17"
 73
     1
 44
1.0
  0
POINT
  5
70E5
330
70DB
100
AcDbEntity
  8
DEFPOINTS
 62
     0
100
AcDbPoint
 10
1061.300281720015
 20
145.1634684581845
 30
0.0
  0
POINT
  5
70E6
330
70DB
100
AcDbEntity
  8
DEFPOINTS
 62
     0
100
AcDbPoint
 10
1078.300281719958
 20
145.1634684581845
 30
0.0
  0
POINT
  5
70E7
330
70DB
100
AcDbEntity
  8
DEFPOINTS
 62
     0
100
AcDbPoint
 10
1078.300281719958
 20
140.7572530307021
 30
0.0
  0
ENDBLK
  5
70DD
330
70DB
100
AcDbEntity
  8
0
100
AcDbBlockEnd
  0
BLOCK
  5
70EA
330
70E9
100
AcDbEntity
  8
0
100
AcDbBlockBegin
  2
*D22
 70
     1
 10
0.0
 20
0.0
 30
0.0
  3
*D22
  1

  0
LINE
  5
70EC
330
70E9
100
AcDbEntity
  8
标注
370
    -2
100
AcDbLine
 10
1077.786580932566
 20
145.3158925871437
 30
0.0
 11
1080.456498748095
 21
145.3158925871437
 31
0.0
  0
LINE
  5
70ED
330
70E9
100
AcDbEntity
  8
标注
370
    -2
100
AcDbLine
 10
1077.786580932566
 20
161.3158925870563
 30
0.0
 11
1080.456498748095
 21
161.3158925870563
 31
0.0
  0
LINE
  5
70EE
330
70E9
100
AcDbEntity
  8
标注
370
    -2
100
AcDbLine
 10
1080.136498748095
 20
145.9658925871437
 30
0.0
 11
1080.136498748095
 21
152.4204287398967
 31
0.0
  0
LINE
  5
70EF
330
70E9
100
AcDbEntity
  8
标注
370
    -2
100
AcDbLine
 10
1080.136498748095
 20
160.6658925870563
 30
0.0
 11
1080.136498748095
 21
154.2113564343033
 31
0.0
  0
SOLID
  5
70F0
330
70E9
100
AcDbEntity
  8
标注
100
AcDbTrace
 10
1080.028165414762
 20
145.9658925871437
 30
0.0
 11
1080.244832081428
 21
145.9658925871437
 31
0.0
 12
1080.136498748095
 22
145.3158925871437
 32
0.0
 13
1080.136498748095
 23
145.3158925871437
 33
0.0
  0
SOLID
  5
70F1
330
70E9
100
AcDbEntity
  8
标注
100
AcDbTrace
 10
1080.028165414762
 20
160.6658925870563
 30
0.0
 11
1080.244832081428
 21
160.6658925870563
 31
0.0
 12
1080.136498748095
 22
161.3158925870563
 32
0.0
 13
1080.136498748095
 23
161.3158925870563
 33
0.0
  0
MTEXT
  5
70F2
330
70E9
100
AcDbEntity
  8
标注
100
AcDbMText
 10
1080.136498748095
 20
153.3158925871
 30
0.0
 40
0.65
 41
0.0
 71
     5
 72
     1
  1
\A1;16"
 11
0.0000000000000001
 21
1.0
 31
0.0
 73
     1
 44
1.0
  0
POINT
  5
70F3
330
70E9
100
AcDbEntity
  8
DEFPOINTS
 62
     0
100
AcDbPoint
 10
1076.906580932566
 20
145.3158925871437
 30
0.0
  0
POINT
  5
70F4
330
70E9
100
AcDbEntity
  8
DEFPOINTS
 62
     0
100
AcDbPoint
 10
1076.906580932566
 20
161.3158925870563
 30
0.0
  0
POINT
  5
70F5
330
70E9
100
AcDbEntity
  8
DEFPOINTS
 62
     0
100
AcDbPoint
 10
1080.136498748095
 20
161.3158925870563
 30
0.0
  0
ENDBLK
  5
70EB
330
70E9
100
AcDbEntity
  8
0
100
AcDbBlockEnd
  0
BLOCK
  5
70F8
330
70F7
100
AcDbEntity
  8
0
100
AcDbBlockBegin
  2
*D23
 70
     1
 10
0.0
 20
0.0
 30
0.0
  3
*D23
  1

  0
LINE
  5
710D
330
70F7
100
AcDbEntity
  8
标注
370
    -2
100
AcDbLine
 10
1078.180281719956
 20
144.3158925871436
 30
0.0
 11
1082.295408139432
 21
144.3158925871436
 31
0.0
  0
LINE
  5
710E
330
70F7
100
AcDbEntity
  8
标注
370
    -2
100
AcDbLine
 10
1078.180281719956
 20
162.3158925870563
 30
0.0
 11
1082.295408139432
 21
162.3158925870563
 31
0.0
  0
LINE
  5
710F
330
70F7
100
AcDbEntity
  8
标注
370
    -2
100
AcDbLine
 10
1081.975408139432
 20
144.9658925871437
 30
0.0
 11
1081.975408139432
 21
152.4204287398967
 31
0.0
  0
LINE
  5
7110
330
70F7
100
AcDbEntity
  8
标注
370
    -2
100
AcDbLine
 10
1081.975408139432
 20
161.6658925870563
 30
0.0
 11
1081.975408139432
 21
154.2113564343033
 31
0.0
  0
SOLID
  5
7111
330
70F7
100
AcDbEntity
  8
标注
100
AcDbTrace
 10
1081.867074806099
 20
144.9658925871437
 30
0.0
 11
1082.083741472765
 21
144.9658925871437
 31
0.0
 12
1081.975408139432
 22
144.3158925871436
 32
0.0
 13
1081.975408139432
 23
144.3158925871436
 33
0.0
  0
SOLID
  5
7112
330
70F7
100
AcDbEntity
  8
标注
100
AcDbTrace
 10
1081.867074806099
 20
161.6658925870563
 30
0.0
 11
1082.083741472765
 21
161.6658925870563
 31
0.0
 12
1081.975408139432
 22
162.3158925870563
 32
0.0
 13
1081.975408139432
 23
162.3158925870563
 33
0.0
  0
MTEXT
  5
7113
330
70F7
100
AcDbEntity
  8
标注
100
AcDbMText
 10
1081.975408139432
 20
153.3158925871002
 30
0.0
 40
0.65
 41
0.0
 71
     5
 72
     1
  1
\A1;18"
 11
0.0000000000000001
 21
1.0
 31
0.0
 73
     1
 44
1.0
  0
POINT
  5
7114
330
70F7
100
AcDbEntity
  8
DEFPOINTS
 62
     0
100
AcDbPoint
 10
1077.300281719956
 20
144.3158925871436
 30
0.0
  0
POINT
  5
7115
330
70F7
100
AcDbEntity
  8
DEFPOINTS
 62
     0
100
AcDbPoint
 10
1077.300281719956
 20
162.3158925870563
 30
0.0
  0
POINT
  5
7116
330
70F7
100
AcDbEntity
  8
DEFPOINTS
 62
     0
100
AcDbPoint
 10
1081.975408139432
 20
162.3158925870563
 30
0.0
  0
ENDBLK
  5
70F9
330
70F7
100
AcDbEntity
  8
0
100
AcDbBlockEnd
  0
BLOCK
  5
7119
330
7118
100
AcDbEntity
  8
0
100
AcDbBlockBegin
  2
*D24
 70
     1
 10
0.0
 20
0.0
 30
0.0
  3
*D24
  1

  0
LINE
  5
7121
330
7118
100
AcDbEntity
  8
标注
370
    -2
100
AcDbLine
 10
1061.797623755785
 20
161.456843388985
 30
0.0
 11
1061.239385996835
 21
161.7898157669429
 31
0.0
  0
MTEXT
  5
7122
330
7118
100
AcDbEntity
  8
标注
100
AcDbMText
 10
1060.731848142556
 20
162.6045974052977
 30
0.0
 40
0.65
 41
0.0
 71
     5
 72
     1
  1
\A1;4-R3/8"
 11
0.8588273214608868
 21
-0.512265196858345
 31
0.0
 73
     1
 44
1.0
  0
LINE
  5
7123
330
7118
100
AcDbEntity
  8
标注
370
    -2
100
AcDbLine
 10
1062.693982507434
 20
160.9221917996663
 30
0.0
 11
1062.355861514734
 21
161.1238710110271
 31
0.0
  0
SOLID
  5
7124
330
7118
100
AcDbEntity
  8
标注
100
AcDbTrace
 10
1061.853119152111
 20
161.5498830154766
 30
0.0
 11
1061.742128359458
 21
161.3638037624934
 31
0.0
 12
1062.355861514734
 22
161.1238710110271
 32
0.0
 13
1062.355861514734
 23
161.1238710110271
 33
0.0
  0
POINT
  5
7125
330
7118
100
AcDbEntity
  8
DEFPOINTS
 62
     0
100
AcDbPoint
 10
1062.355861514734
 20
161.1238710110271
 30
0.0
  0
POINT
  5
7126
330
7118
100
AcDbEntity
  8
DEFPOINTS
 62
     0
100
AcDbPoint
 10
1062.693982507434
 20
160.9221917996663
 30
0.0
  0
ENDBLK
  5
711A
330
7118
100
AcDbEntity
  8
0
100
AcDbBlockEnd
  0
BLOCK
  5
7129
330
7128
100
AcDbEntity
  8
0
100
AcDbBlockBegin
  2
*D25
 70
     1
 10
0.0
 20
0.0
 30
0.0
  3
*D25
  1

  0
LINE
  5
712B
330
7128
100
AcDbEntity
  8
标注
370
    -2
100
AcDbLine
 10
1062.221541562554
 20
113.8724073341909
 30
0.0
 11
1062.221541562554
 21
111.9913198585199
 31
0.0
  0
LINE
  5
712C
330
7128
100
AcDbEntity
  8
标注
370
    -2
100
AcDbLine
 10
1077.379021877446
 20
113.8724073341909
 30
0.0
 11
1077.379021877446
 21
111.9913198585199
 31
0.0
  0
LINE
  5
712D
330
7128
100
AcDbEntity
  8
标注
370
    -2
100
AcDbLine
 10
1062.871541562554
 20
112.3113198585198
 30
0.0
 11
1068.147519100627
 21
112.3113198585198
 31
0.0
  0
LINE
  5
712E
330
7128
100
AcDbEntity
  8
标注
370
    -2
100
AcDbLine
 10
1076.729021877446
 20
112.3113198585198
 30
0.0
 11
1071.453044339372
 21
112.3113198585198
 31
0.0
  0
SOLID
  5
712F
330
7128
100
AcDbEntity
  8
标注
100
AcDbTrace
 10
1062.871541562554
 20
112.4196531918532
 30
0.0
 11
1062.871541562554
 21
112.2029865251865
 31
0.0
 12
1062.221541562554
 22
112.3113198585198
 32
0.0
 13
1062.221541562554
 23
112.3113198585198
 33
0.0
  0
SOLID
  5
7130
330
7128
100
AcDbEntity
  8
标注
100
AcDbTrace
 10
1076.729021877446
 20
112.4196531918532
 30
0.0
 11
1076.729021877446
 21
112.2029865251865
 31
0.0
 12
1077.379021877446
 22
112.3113198585198
 32
0.0
 13
1077.379021877446
 23
112.3113198585198
 33
0.0
  0
MTEXT
  5
7131
330
7128
100
AcDbEntity
  8
标注
100
AcDbMText
 10
1069.80028172
 20
112.3113198585198
 30
0.0
 40
0.65
 41
0.0
 71
     5
 72
     1
  1
\A1;15 1/8"
 73
     1
 44
1.0
  0
POINT
  5
7132
330
7128
100
AcDbEntity
  8
DEFPOINTS
 62
     0
100
AcDbPoint
 10
1062.221541562554
 20
114.7524073341908
 30
0.0
  0
POINT
  5
7133
330
7128
100
AcDbEntity
  8
DEFPOINTS
 62
     0
100
AcDbPoint
 10
1077.379021877446
 20
114.7524073341908
 30
0.0
  0
POINT
  5
7134
330
7128
100
AcDbEntity
  8
DEFPOINTS
 62
     0
100
AcDbPoint
 10
1077.379021877446
 20
112.3113198585198
 30
0.0
  0
ENDBLK
  5
712A
330
7128
100
AcDbEntity
  8
0
100
AcDbBlockEnd
  0
BLOCK
  5
7137
330
7136
100
AcDbEntity
  8
0
100
AcDbBlockBegin
  2
*D26
 70
     1
 10
0.0
 20
0.0
 30
0.0
  3
*D26
  1

  0
LINE
  5
7139
330
7136
100
AcDbEntity
  8
标注
370
    -2
100
AcDbLine
 10
1077.786580932566
 20
114.2799663893227
 30
0.0
 11
1080.439096881036
 21
114.2799663893227
 31
0.0
  0
LINE
  5
713A
330
7136
100
AcDbEntity
  8
标注
370
    -2
100
AcDbLine
 10
1077.786580932566
 20
130.4374467042205
 30
0.0
 11
1080.439096881036
 21
130.4374467042205
 31
0.0
  0
LINE
  5
713B
330
7136
100
AcDbEntity
  8
标注
370
    -2
100
AcDbLine
 10
1080.119096881036
 20
114.9299663893227
 30
0.0
 11
1080.119096881036
 21
120.7059439273992
 31
0.0
  0
LINE
  5
713C
330
7136
100
AcDbEntity
  8
标注
370
    -2
100
AcDbLine
 10
1080.119096881036
 20
129.7874467042205
 30
0.0
 11
1080.119096881036
 21
124.0114691661441
 31
0.0
  0
SOLID
  5
713D
330
7136
100
AcDbEntity
  8
标注
100
AcDbTrace
 10
1080.010763547702
 20
114.9299663893227
 30
0.0
 11
1080.227430214369
 21
114.9299663893227
 31
0.0
 12
1080.119096881036
 22
114.2799663893227
 32
0.0
 13
1080.119096881036
 23
114.2799663893227
 33
0.0
  0
SOLID
  5
713E
330
7136
100
AcDbEntity
  8
标注
100
AcDbTrace
 10
1080.010763547702
 20
129.7874467042205
 30
0.0
 11
1080.227430214369
 21
129.7874467042205
 31
0.0
 12
1080.119096881036
 22
130.4374467042205
 32
0.0
 13
1080.119096881036
 23
130.4374467042205
 33
0.0
  0
MTEXT
  5
713F
330
7136
100
AcDbEntity
  8
标注
100
AcDbMText
 10
1080.119096881036
 20
122.3587065467718
 30
0.0
 40
0.65
 41
0.0
 71
     5
 72
     1
  1
\A1;16 1/8"
 11
0.0000000000000001
 21
1.0
 31
0.0
 73
     1
 44
1.0
  0
POINT
  5
7140
330
7136
100
AcDbEntity
  8
DEFPOINTS
 62
     0
100
AcDbPoint
 10
1076.906580932566
 20
114.2799663893227
 30
0.0
  0
POINT
  5
7141
330
7136
100
AcDbEntity
  8
DEFPOINTS
 62
     0
100
AcDbPoint
 10
1076.906580932566
 20
130.4374467042205
 30
0.0
  0
POINT
  5
7142
330
7136
100
AcDbEntity
  8
DEFPOINTS
 62
     0
100
AcDbPoint
 10
1080.119096881036
 20
130.4374467042205
 30
0.0
  0
ENDBLK
  5
7138
330
7136
100
AcDbEntity
  8
0
100
AcDbBlockEnd
  0
BLOCK
  5
7145
330
7144
100
AcDbEntity
  8
0
100
AcDbBlockBegin
  2
*D27
 70
     1
 10
0.0
 20
0.0
 30
0.0
  3
*D27
  1

  0
LINE
  5
7159
330
7144
100
AcDbEntity
  8
标注
370
    -2
100
AcDbLine
 10
1061.892199624089
 20
113.9669024756968
 30
0.0
 11
1061.427891121667
 21
113.5120204969609
 31
0.0
  0
MTEXT
  5
715A
330
7144
100
AcDbEntity
  8
标注
100
AcDbMText
 10
1060.868928586479
 20
113.7487305025308
 30
0.0
 40
0.65
 41
0.0
 71
     5
 72
     1
  1
\A1;4-R1/2"
 11
0.7143207729568451
 21
0.6998184288244599
 31
0.0
 73
     1
 44
1.0
  0
LINE
  5
715B
330
7144
100
AcDbEntity
  8
标注
370
    -2
100
AcDbLine
 10
1062.693982507433
 20
114.7524073341907
 30
0.0
 11
1062.35650812651
 21
114.4217844544327
 31
0.0
  0
SOLID
  5
715C
330
7144
100
AcDbEntity
  8
标注
100
AcDbTrace
 10
1061.816385960966
 20
114.0442872261005
 30
0.0
 11
1061.968013287212
 21
113.8895177252931
 31
0.0
 12
1062.35650812651
 22
114.4217844544327
 32
0.0
 13
1062.35650812651
 23
114.4217844544327
 33
0.0
  0
POINT
  5
715D
330
7144
100
AcDbEntity
  8
DEFPOINTS
 62
     0
100
AcDbPoint
 10
1062.35650812651
 20
114.4217844544327
 30
0.0
  0
POINT
  5
715E
330
7144
100
AcDbEntity
  8
DEFPOINTS
 62
     0
100
AcDbPoint
 10
1062.693982507433
 20
114.7524073341907
 30
0.0
  0
ENDBLK
  5
7146
330
7144
100
AcDbEntity
  8
0
100
AcDbBlockEnd
  0
BLOCK
  5
727B
330
727A
100
AcDbEntity
  8
0
100
AcDbBlockBegin
  2
*D28
 70
     1
 10
0.0
 20
0.0
 30
0.0
  3
*D28
  1

  0
LINE
  5
727D
330
727A
100
AcDbEntity
  8
标注
370
    -2
100
AcDbLine
 10
1125.660921774582
 20
181.7131571807422
 30
0.0
 11
1127.231509896466
 21
181.7131571807422
 31
0.0
  0
LINE
  5
727E
330
727A
100
AcDbEntity
  8
标注
370
    -2
100
AcDbLine
 10
1125.660921774582
 20
172.7131571807422
 30
0.0
 11
1127.231509896466
 21
172.7131571807422
 31
0.0
  0
LINE
  5
727F
330
727A
100
AcDbEntity
  8
标注
370
    -2
100
AcDbLine
 10
1126.911509896466
 20
181.0631571807422
 30
0.0
 11
1126.911509896466
 21
177.886707658232
 31
0.0
  0
LINE
  5
7280
330
727A
100
AcDbEntity
  8
标注
370
    -2
100
AcDbLine
 10
1126.911509896466
 20
173.3631571807421
 30
0.0
 11
1126.911509896466
 21
176.5396067032525
 31
0.0
  0
SOLID
  5
7281
330
727A
100
AcDbEntity
  8
标注
100
AcDbTrace
 10
1126.803176563133
 20
181.0631571807422
 30
0.0
 11
1127.0198432298
 21
181.0631571807422
 31
0.0
 12
1126.911509896466
 22
181.7131571807422
 32
0.0
 13
1126.911509896466
 23
181.7131571807422
 33
0.0
  0
SOLID
  5
7282
330
727A
100
AcDbEntity
  8
标注
100
AcDbTrace
 10
1126.803176563133
 20
173.3631571807421
 30
0.0
 11
1127.0198432298
 21
173.3631571807421
 31
0.0
 12
1126.911509896466
 22
172.7131571807422
 32
0.0
 13
1126.911509896466
 23
172.7131571807422
 33
0.0
  0
MTEXT
  5
7283
330
727A
100
AcDbEntity
  8
标注
100
AcDbMText
 10
1126.911509896466
 20
177.2131571807424
 30
0.0
 40
0.65
 41
0.0
 71
     5
 72
     1
  1
\A1;9"
 11
0.0000000000000001
 21
1.0
 31
0.0
 73
     1
 44
1.0
  0
POINT
  5
7284
330
727A
100
AcDbEntity
  8
DEFPOINTS
 62
     0
100
AcDbPoint
 10
1124.780921774582
 20
181.7131571807422
 30
0.0
  0
POINT
  5
7285
330
727A
100
AcDbEntity
  8
DEFPOINTS
 62
     0
100
AcDbPoint
 10
1124.780921774582
 20
172.7131571807422
 30
0.0
  0
POINT
  5
7286
330
727A
100
AcDbEntity
  8
DEFPOINTS
 62
     0
100
AcDbPoint
 10
1126.911509896466
 20
172.7131571807422
 30
0.0
  0
ENDBLK
  5
727C
330
727A
100
AcDbEntity
  8
0
100
AcDbBlockEnd
  0
BLOCK
  5
7289
330
7288
100
AcDbEntity
  8
0
100
AcDbBlockBegin
  2
*D29
 70
     1
 10
0.0
 20
0.0
 30
0.0
  3
*D29
  1

  0
LINE
  5
728B
330
7288
100
AcDbEntity
  8
标注
370
    -2
100
AcDbLine
 10
1102.78092177466
 20
143.8895057462715
 30
0.0
 11
1102.78092177466
 21
141.1713936719328
 31
0.0
  0
LINE
  5
728C
330
7288
100
AcDbEntity
  8
标注
370
    -2
100
AcDbLine
 10
1123.780921774582
 20
143.8895057462715
 30
0.0
 11
1123.780921774582
 21
141.1713936719328
 31
0.0
  0
LINE
  5
728D
330
7288
100
AcDbEntity
  8
标注
370
    -2
100
AcDbLine
 10
1103.43092177466
 20
141.4913936719328
 30
0.0
 11
1112.349322183898
 21
141.4913936719328
 31
0.0
  0
LINE
  5
728E
330
7288
100
AcDbEntity
  8
标注
370
    -2
100
AcDbLine
 10
1123.130921774582
 20
141.4913936719328
 30
0.0
 11
1114.212521365344
 21
141.4913936719328
 31
0.0
  0
SOLID
  5
728F
330
7288
100
AcDbEntity
  8
标注
100
AcDbTrace
 10
1103.43092177466
 20
141.5997270052661
 30
0.0
 11
1103.43092177466
 21
141.3830603385995
 31
0.0
 12
1102.78092177466
 22
141.4913936719328
 32
0.0
 13
1102.78092177466
 23
141.4913936719328
 33
0.0
  0
SOLID
  5
7290
330
7288
100
AcDbEntity
  8
标注
100
AcDbTrace
 10
1123.130921774582
 20
141.5997270052661
 30
0.0
 11
1123.130921774582
 21
141.3830603385995
 31
0.0
 12
1123.780921774582
 22
141.4913936719328
 32
0.0
 13
1123.780921774582
 23
141.4913936719328
 33
0.0
  0
MTEXT
  5
7291
330
7288
100
AcDbEntity
  8
标注
100
AcDbMText
 10
1113.280921774621
 20
141.4913936719328
 30
0.0
 40
0.65
 41
0.0
 71
     5
 72
     1
  1
\A1;21"
 73
     1
 44
1.0
  0
POINT
  5
7292
330
7288
100
AcDbEntity
  8
DEFPOINTS
 62
     0
100
AcDbPoint
 10
1102.78092177466
 20
144.7695057462715
 30
0.0
  0
POINT
  5
7293
330
7288
100
AcDbEntity
  8
DEFPOINTS
 62
     0
100
AcDbPoint
 10
1123.780921774582
 20
144.7695057462715
 30
0.0
  0
POINT
  5
7294
330
7288
100
AcDbEntity
  8
DEFPOINTS
 62
     0
100
AcDbPoint
 10
1123.780921774582
 20
141.4913936719328
 30
0.0
  0
ENDBLK
  5
728A
330
7288
100
AcDbEntity
  8
0
100
AcDbBlockEnd
  0
BLOCK
  5
7385
330
7384
100
AcDbEntity
  8
0
100
AcDbBlockBegin
  2
*D30
 70
     1
 10
0.0
 20
0.0
 30
0.0
  3
*D30
  1

  0
LINE
  5
7448
330
7384
100
AcDbEntity
  8
标注
370
    -2
100
AcDbLine
 10
1092.375249099028
 20
179.4677590061394
 30
0.0
 11
1093.938912232119
 21
179.4677590061394
 31
0.0
  0
LINE
  5
7449
330
7384
100
AcDbEntity
  8
标注
370
    -2
100
AcDbLine
 10
1092.375249099028
 20
170.4677590061394
 30
0.0
 11
1093.938912232119
 21
170.4677590061394
 31
0.0
  0
LINE
  5
744A
330
7384
100
AcDbEntity
  8
标注
370
    -2
100
AcDbLine
 10
1093.618912232119
 20
178.8177590061394
 30
0.0
 11
1093.618912232119
 21
175.6413094836292
 31
0.0
  0
LINE
  5
744B
330
7384
100
AcDbEntity
  8
标注
370
    -2
100
AcDbLine
 10
1093.618912232119
 20
171.1177590061394
 30
0.0
 11
1093.618912232119
 21
174.2942085286497
 31
0.0
  0
SOLID
  5
744C
330
7384
100
AcDbEntity
  8
标注
100
AcDbTrace
 10
1093.510578898786
 20
178.8177590061394
 30
0.0
 11
1093.727245565452
 21
178.8177590061394
 31
0.0
 12
1093.618912232119
 22
179.4677590061394
 32
0.0
 13
1093.618912232119
 23
179.4677590061394
 33
0.0
  0
SOLID
  5
744D
330
7384
100
AcDbEntity
  8
标注
100
AcDbTrace
 10
1093.510578898786
 20
171.1177590061394
 30
0.0
 11
1093.727245565452
 21
171.1177590061394
 31
0.0
 12
1093.618912232119
 22
170.4677590061394
 32
0.0
 13
1093.618912232119
 23
170.4677590061394
 33
0.0
  0
MTEXT
  5
744E
330
7384
100
AcDbEntity
  8
标注
100
AcDbMText
 10
1093.618912232119
 20
174.9677590061396
 30
0.0
 40
0.65
 41
0.0
 71
     5
 72
     1
  1
\A1;9"
 11
0.0000000000000001
 21
1.0
 31
0.0
 73
     1
 44
1.0
  0
POINT
  5
744F
330
7384
100
AcDbEntity
  8
DEFPOINTS
 62
     0
100
AcDbPoint
 10
1091.495249099028
 20
179.4677590061394
 30
0.0
  0
POINT
  5
7450
330
7384
100
AcDbEntity
  8
DEFPOINTS
 62
     0
100
AcDbPoint
 10
1091.495249099028
 20
170.4677590061394
 30
0.0
  0
POINT
  5
7451
330
7384
100
AcDbEntity
  8
DEFPOINTS
 62
     0
100
AcDbPoint
 10
1093.618912232119
 20
170.4677590061394
 30
0.0
  0
ENDBLK
  5
7386
330
7384
100
AcDbEntity
  8
0
100
AcDbBlockEnd
  0
BLOCK
  5
7393
330
7392
100
AcDbEntity
  8
0
100
AcDbBlockBegin
  2
*D31
 70
     1
 10
0.0
 20
0.0
 30
0.0
  3
*D31
  1

  0
ARC
  5
7503
330
7392
100
AcDbEntity
  8
标注
  6
Continuous
 62
     3
370
    13
100
AcDbCircle
 10
1090.495249099016
 20
179.4677590061393
 30
0.0
 40
2.884844691926062
100
AcDbArc
 50
192.9370875454747
 51
208.3800567098591
  0
ARC
  5
7504
330
7392
100
AcDbEntity
  8
标注
  6
Continuous
 62
     3
370
    13
100
AcDbCircle
 10
1090.495249099016
 20
179.4677590061393
 30
0.0
 40
2.884844691926062
100
AcDbArc
 50
237.61485391164
 51
253.0578230760241
  0
SOLID
  5
7505
330
7392
100
AcDbEntity
  8
标注
 62
     3
100
AcDbTrace
 10
1087.575988251583
 20
178.8096924142572
 30
0.0
 11
1087.791275587085
 21
178.8341015850053
 31
0.0
 12
1087.61040440709
 22
179.4677590061393
 32
0.0
 13
1087.61040440709
 23
179.4677590061393
 33
0.0
  0
SOLID
  5
7506
330
7392
100
AcDbEntity
  8
标注
 62
     3
100
AcDbTrace
 10
1089.674279908552
 20
176.814646858323
 30
0.0
 11
1089.634893586732
 21
176.6015901473328
 31
0.0
 12
1090.293756880613
 22
176.5899595373686
 32
0.0
 13
1090.293756880613
 23
176.5899595373686
 33
0.0
  0
MTEXT
  5
7507
102
{ACAD_XDICTIONARY
360
7AEB
102
}
330
7392
100
AcDbEntity
  8
标注
 62
     3
100
AcDbMText
 10
1088.385319875883
 20
177.5003933639913
 30
0.0
 40
0.65
 41
0.0
 71
     5
 72
     1
  1
\A1;86\U+00B0
 11
0.6819658776273699
 21
-0.7313839906314134
 31
0.0
 73
     1
 44
1.0
  0
POINT
  5
7508
330
7392
100
AcDbEntity
  8
DEFPOINTS
 62
     0
100
AcDbPoint
 10
1087.963972122716
 20
178.083936125209
 30
0.0
  0
POINT
  5
7509
330
7392
100
AcDbEntity
  8
DEFPOINTS
 62
     0
100
AcDbPoint
 10
1069.403474290523
 20
179.4677590061394
 30
0.0
  0
POINT
  5
750A
330
7392
100
AcDbEntity
  8
DEFPOINTS
 62
     0
100
AcDbPoint
 10
1090.488839079847
 20
179.3762083253888
 30
0.0
  0
POINT
  5
750B
330
7392
100
AcDbEntity
  8
DEFPOINTS
 62
     0
100
AcDbPoint
 10
1089.895315386576
 20
170.8992448836573
 30
0.0
  0
POINT
  5
750C
330
7392
100
AcDbEntity
  8
DEFPOINTS
 62
     0
100
AcDbPoint
 10
1090.587023907619
 20
179.4677590061394
 30
0.0
  0
ENDBLK
  5
7394
330
7392
100
AcDbEntity
  8
0
100
AcDbBlockEnd
  0
BLOCK
  5
73AC
330
73AB
100
AcDbEntity
  8
0
100
AcDbBlockBegin
  2
*D32
 70
     1
 10
0.0
 20
0.0
 30
0.0
  3
*D32
  1

  0
LINE
  5
745C
330
73AB
100
AcDbEntity
  8
标注
370
    -2
100
AcDbLine
 10
1069.686409283568
 20
170.2582457510156
 30
0.0
 11
1069.187240027704
 21
169.8419164894927
 31
0.0
  0
MTEXT
  5
745D
330
73AB
100
AcDbEntity
  8
标注
100
AcDbMText
 10
1069.116256475097
 20
170.5714918804614
 30
0.0
 40
0.65
 41
0.0
 71
     5
 72
     1
  1
\A1;R3/8"
 11
0.767952701329009
 21
0.6405065561893009
 31
0.0
 73
     1
 44
1.0
  0
LINE
  5
745E
330
73AB
100
AcDbEntity
  8
标注
370
    -2
100
AcDbLine
 10
1070.487922122631
 20
170.9267429480455
 30
0.0
 11
1070.185578539432
 21
170.6745750125385
 31
0.0
  0
SOLID
  5
745F
330
73AB
100
AcDbEntity
  8
标注
100
AcDbTrace
 10
1069.617021073314
 20
170.3414406269929
 30
0.0
 11
1069.755797493822
 21
170.1750508750383
 31
0.0
 12
1070.185578539432
 22
170.6745750125385
 32
0.0
 13
1070.185578539432
 23
170.6745750125385
 33
0.0
  0
POINT
  5
7460
330
73AB
100
AcDbEntity
  8
DEFPOINTS
 62
     0
100
AcDbPoint
 10
1070.185578539432
 20
170.6745750125385
 30
0.0
  0
POINT
  5
7461
330
73AB
100
AcDbEntity
  8
DEFPOINTS
 62
     0
100
AcDbPoint
 10
1070.487922122631
 20
170.9267429480455
 30
0.0
  0
ENDBLK
  5
73AD
330
73AB
100
AcDbEntity
  8
0
100
AcDbBlockEnd
  0
BLOCK
  5
73B6
330
73B5
100
AcDbEntity
  8
0
100
AcDbBlockBegin
  2
*D33
 70
     1
 10
0.0
 20
0.0
 30
0.0
  3
*D33
  1

  0
LINE
  5
7462
330
73B5
100
AcDbEntity
  8
标注
370
    -2
100
AcDbLine
 10
1069.495249099115
 20
141.6441075716688
 30
0.0
 11
1069.495249099115
 21
138.9264425243302
 31
0.0
  0
LINE
  5
7463
330
73B5
100
AcDbEntity
  8
标注
370
    -2
100
AcDbLine
 10
1090.495249099028
 20
141.6441075716688
 30
0.0
 11
1090.495249099028
 21
138.9264425243302
 31
0.0
  0
LINE
  5
7464
330
73B5
100
AcDbEntity
  8
标注
370
    -2
100
AcDbLine
 10
1070.145249099115
 20
139.2464425243302
 30
0.0
 11
1079.063649508348
 21
139.2464425243302
 31
0.0
  0
LINE
  5
7465
330
73B5
100
AcDbEntity
  8
标注
370
    -2
100
AcDbLine
 10
1089.845249099028
 20
139.2464425243302
 30
0.0
 11
1080.926848689794
 21
139.2464425243302
 31
0.0
  0
SOLID
  5
7466
330
73B5
100
AcDbEntity
  8
标注
100
AcDbTrace
 10
1070.145249099115
 20
139.3547758576636
 30
0.0
 11
1070.145249099115
 21
139.1381091909969
 31
0.0
 12
1069.495249099115
 22
139.2464425243302
 32
0.0
 13
1069.495249099115
 23
139.2464425243302
 33
0.0
  0
SOLID
  5
7467
330
73B5
100
AcDbEntity
  8
标注
100
AcDbTrace
 10
1089.845249099028
 20
139.3547758576636
 30
0.0
 11
1089.845249099028
 21
139.1381091909969
 31
0.0
 12
1090.495249099028
 22
139.2464425243302
 32
0.0
 13
1090.495249099028
 23
139.2464425243302
 33
0.0
  0
MTEXT
  5
7468
330
73B5
100
AcDbEntity
  8
标注
100
AcDbMText
 10
1079.995249099071
 20
139.2464425243302
 30
0.0
 40
0.65
 41
0.0
 71
     5
 72
     1
  1
\A1;21"
 73
     1
 44
1.0
  0
POINT
  5
7469
330
73B5
100
AcDbEntity
  8
DEFPOINTS
 62
     0
100
AcDbPoint
 10
1069.495249099115
 20
142.5241075716688
 30
0.0
  0
POINT
  5
746A
330
73B5
100
AcDbEntity
  8
DEFPOINTS
 62
     0
100
AcDbPoint
 10
1090.495249099028
 20
142.5241075716688
 30
0.0
  0
POINT
  5
746B
330
73B5
100
AcDbEntity
  8
DEFPOINTS
 62
     0
100
AcDbPoint
 10
1090.495249099028
 20
139.2464425243302
 30
0.0
  0
ENDBLK
  5
73B7
330
73B5
100
AcDbEntity
  8
0
100
AcDbBlockEnd
  0
BLOCK
  5
73C4
330
73C3
100
AcDbEntity
  8
0
100
AcDbBlockBegin
  2
*D34
 70
     1
 10
0.0
 20
0.0
 30
0.0
  3
*D34
  1

  0
LINE
  5
746C
330
73C3
100
AcDbEntity
  8
标注
370
    -2
100
AcDbLine
 10
1068.495249099115
 20
141.0979826553197
 30
0.0
 11
1068.495249099115
 21
136.9833930449741
 31
0.0
  0
LINE
  5
746D
330
73C3
100
AcDbEntity
  8
标注
370
    -2
100
AcDbLine
 10
1091.495249099028
 20
141.0979826553197
 30
0.0
 11
1091.495249099028
 21
136.9833930449741
 31
0.0
  0
LINE
  5
746E
330
73C3
100
AcDbEntity
  8
标注
370
    -2
100
AcDbLine
 10
1069.145249099115
 20
137.3033930449741
 30
0.0
 11
1079.063649508348
 21
137.3033930449741
 31
0.0
  0
LINE
  5
746F
330
73C3
100
AcDbEntity
  8
标注
370
    -2
100
AcDbLine
 10
1090.845249099028
 20
137.3033930449741
 30
0.0
 11
1080.926848689794
 21
137.3033930449741
 31
0.0
  0
SOLID
  5
7470
330
73C3
100
AcDbEntity
  8
标注
100
AcDbTrace
 10
1069.145249099115
 20
137.4117263783074
 30
0.0
 11
1069.145249099115
 21
137.1950597116408
 31
0.0
 12
1068.495249099115
 22
137.3033930449741
 32
0.0
 13
1068.495249099115
 23
137.3033930449741
 33
0.0
  0
SOLID
  5
7471
330
73C3
100
AcDbEntity
  8
标注
100
AcDbTrace
 10
1090.845249099028
 20
137.4117263783074
 30
0.0
 11
1090.845249099028
 21
137.1950597116408
 31
0.0
 12
1091.495249099028
 22
137.3033930449741
 32
0.0
 13
1091.495249099028
 23
137.3033930449741
 33
0.0
  0
MTEXT
  5
7472
330
73C3
100
AcDbEntity
  8
标注
100
AcDbMText
 10
1079.995249099071
 20
137.3033930449741
 30
0.0
 40
0.65
 41
0.0
 71
     5
 72
     1
  1
\A1;23"
 73
     1
 44
1.0
  0
POINT
  5
7473
330
73C3
100
AcDbEntity
  8
DEFPOINTS
 62
     0
100
AcDbPoint
 10
1068.495249099115
 20
141.9779826553197
 30
0.0
  0
POINT
  5
7474
330
73C3
100
AcDbEntity
  8
DEFPOINTS
 62
     0
100
AcDbPoint
 10
1091.495249099028
 20
141.9779826553197
 30
0.0
  0
POINT
  5
7475
330
73C3
100
AcDbEntity
  8
DEFPOINTS
 62
     0
100
AcDbPoint
 10
1091.495249099028
 20
137.3033930449741
 30
0.0
  0
ENDBLK
  5
73C5
330
73C3
100
AcDbEntity
  8
0
100
AcDbBlockEnd
  0
BLOCK
  5
73D2
330
73D1
100
AcDbEntity
  8
0
100
AcDbBlockBegin
  2
*D35
 70
     1
 10
0.0
 20
0.0
 30
0.0
  3
*D35
  1

  0
LINE
  5
7476
330
73D1
100
AcDbEntity
  8
标注
370
    -2
100
AcDbLine
 10
1090.981548311638
 20
142.1304067842496
 30
0.0
 11
1093.835831287696
 21
142.1304067842496
 31
0.0
  0
LINE
  5
7477
330
73D1
100
AcDbEntity
  8
标注
370
    -2
100
AcDbLine
 10
1090.981548311638
 20
158.1304067842012
 30
0.0
 11
1093.835831287696
 21
158.1304067842012
 31
0.0
  0
LINE
  5
7478
330
73D1
100
AcDbEntity
  8
标注
370
    -2
100
AcDbLine
 10
1093.515831287696
 20
142.7804067842496
 30
0.0
 11
1093.515831287696
 21
149.2349429370221
 31
0.0
  0
LINE
  5
7479
330
73D1
100
AcDbEntity
  8
标注
370
    -2
100
AcDbLine
 10
1093.515831287696
 20
157.4804067842012
 30
0.0
 11
1093.515831287696
 21
151.0258706314287
 31
0.0
  0
SOLID
  5
747A
330
73D1
100
AcDbEntity
  8
标注
100
AcDbTrace
 10
1093.407497954363
 20
142.7804067842496
 30
0.0
 11
1093.624164621029
 21
142.7804067842496
 31
0.0
 12
1093.515831287696
 22
142.1304067842496
 32
0.0
 13
1093.515831287696
 23
142.1304067842496
 33
0.0
  0
SOLID
  5
747B
330
73D1
100
AcDbEntity
  8
标注
100
AcDbTrace
 10
1093.407497954363
 20
157.4804067842012
 30
0.0
 11
1093.624164621029
 21
157.4804067842012
 31
0.0
 12
1093.515831287696
 22
158.1304067842012
 32
0.0
 13
1093.515831287696
 23
158.1304067842012
 33
0.0
  0
MTEXT
  5
747C
330
73D1
100
AcDbEntity
  8
标注
100
AcDbMText
 10
1093.515831287696
 20
150.1304067842256
 30
0.0
 40
0.65
 41
0.0
 71
     5
 72
     1
  1
\A1;16"
 11
0.0000000000000001
 21
1.0
 31
0.0
 73
     1
 44
1.0
  0
POINT
  5
747D
330
73D1
100
AcDbEntity
  8
DEFPOINTS
 62
     0
100
AcDbPoint
 10
1090.101548311638
 20
142.1304067842496
 30
0.0
  0
POINT
  5
747E
330
73D1
100
AcDbEntity
  8
DEFPOINTS
 62
     0
100
AcDbPoint
 10
1090.101548311638
 20
158.1304067842012
 30
0.0
  0
POINT
  5
747F
330
73D1
100
AcDbEntity
  8
DEFPOINTS
 62
     0
100
AcDbPoint
 10
1093.515831287696
 20
158.1304067842012
 30
0.0
  0
ENDBLK
  5
73D3
330
73D1
100
AcDbEntity
  8
0
100
AcDbBlockEnd
  0
BLOCK
  5
73E0
330
73DF
100
AcDbEntity
  8
0
100
AcDbBlockBegin
  2
*D36
 70
     1
 10
0.0
 20
0.0
 30
0.0
  3
*D36
  1

  0
LINE
  5
7480
330
73DF
100
AcDbEntity
  8
标注
370
    -2
100
AcDbLine
 10
1091.527673227987
 20
159.1304067841913
 30
0.0
 11
1095.76481880432
 21
159.1304067841913
 31
0.0
  0
LINE
  5
7481
330
73DF
100
AcDbEntity
  8
标注
370
    -2
100
AcDbLine
 10
1091.375249099028
 20
141.1304067842495
 30
0.0
 11
1095.76481880432
 21
141.1304067842495
 31
0.0
  0
LINE
  5
7482
330
73DF
100
AcDbEntity
  8
标注
370
    -2
100
AcDbLine
 10
1095.44481880432
 20
158.4804067841913
 30
0.0
 11
1095.44481880432
 21
151.0258706314237
 31
0.0
  0
LINE
  5
7483
330
73DF
100
AcDbEntity
  8
标注
370
    -2
100
AcDbLine
 10
1095.44481880432
 20
141.7804067842496
 30
0.0
 11
1095.44481880432
 21
149.2349429370172
 31
0.0
  0
SOLID
  5
7484
330
73DF
100
AcDbEntity
  8
标注
100
AcDbTrace
 10
1095.336485470987
 20
158.4804067841913
 30
0.0
 11
1095.553152137653
 21
158.4804067841913
 31
0.0
 12
1095.44481880432
 22
159.1304067841913
 32
0.0
 13
1095.44481880432
 23
159.1304067841913
 33
0.0
  0
SOLID
  5
7485
330
73DF
100
AcDbEntity
  8
标注
100
AcDbTrace
 10
1095.336485470987
 20
141.7804067842496
 30
0.0
 11
1095.553152137653
 21
141.7804067842496
 31
0.0
 12
1095.44481880432
 22
141.1304067842495
 32
0.0
 13
1095.44481880432
 23
141.1304067842495
 33
0.0
  0
MTEXT
  5
7486
330
73DF
100
AcDbEntity
  8
标注
100
AcDbMText
 10
1095.44481880432
 20
150.1304067842206
 30
0.0
 40
0.65
 41
0.0
 71
     5
 72
     1
  1
\A1;18"
 11
0.0000000000000001
 21
1.0
 31
0.0
 73
     1
 44
1.0
  0
POINT
  5
7487
330
73DF
100
AcDbEntity
  8
DEFPOINTS
 62
     0
100
AcDbPoint
 10
1090.647673227987
 20
159.1304067841913
 30
0.0
  0
POINT
  5
7488
330
73DF
100
AcDbEntity
  8
DEFPOINTS
 62
     0
100
AcDbPoint
 10
1090.495249099028
 20
141.1304067842495
 30
0.0
  0
POINT
  5
7489
330
73DF
100
AcDbEntity
  8
DEFPOINTS
 62
     0
100
AcDbPoint
 10
1095.44481880432
 20
141.1304067842495
 30
0.0
  0
ENDBLK
  5
73E1
330
73DF
100
AcDbEntity
  8
0
100
AcDbBlockEnd
  0
BLOCK
  5
73EE
330
73ED
100
AcDbEntity
  8
0
100
AcDbBlockBegin
  2
*D37
 70
     1
 10
0.0
 20
0.0
 30
0.0
  3
*D37
  1

  0
LINE
  5
748A
330
73ED
100
AcDbEntity
  8
标注
370
    -2
100
AcDbLine
 10
1069.372046530698
 20
158.6434155723406
 30
0.0
 11
1069.050127466028
 21
159.2080996572964
 31
0.0
  0
MTEXT
  5
748B
330
73ED
100
AcDbEntity
  8
标注
100
AcDbMText
 10
1068.216135156376
 20
159.7336474873393
 30
0.0
 40
0.65
 41
0.0
 71
     5
 72
     1
  1
\A1;R3/8"
 11
0.4952600994915829
 21
-0.8687447460857462
 31
0.0
 73
     1
 44
1.0
  0
LINE
  5
748C
330
73ED
100
AcDbEntity
  8
标注
370
    -2
100
AcDbLine
 10
1069.888949886505
 20
157.7367059968012
 30
0.0
 11
1069.693965595368
 21
158.0787314873848
 31
0.0
  0
SOLID
  5
748D
330
73ED
100
AcDbEntity
  8
标注
100
AcDbTrace
 10
1069.466160544857
 20
158.6970687497855
 30
0.0
 11
1069.277932516539
 21
158.5897623948956
 31
0.0
 12
1069.693965595368
 22
158.0787314873848
 32
0.0
 13
1069.693965595368
 23
158.0787314873848
 33
0.0
  0
POINT
  5
748E
330
73ED
100
AcDbEntity
  8
DEFPOINTS
 62
     0
100
AcDbPoint
 10
1069.693965595368
 20
158.0787314873848
 30
0.0
  0
POINT
  5
748F
330
73ED
100
AcDbEntity
  8
DEFPOINTS
 62
     0
100
AcDbPoint
 10
1069.888949886505
 20
157.7367059968012
 30
0.0
  0
ENDBLK
  5
73EF
330
73ED
100
AcDbEntity
  8
0
100
AcDbBlockEnd
  0
BLOCK
  5
7404
330
7403
100
AcDbEntity
  8
0
100
AcDbBlockBegin
  2
*D38
 70
     1
 10
0.0
 20
0.0
 30
0.0
  3
*D38
  1

  0
LINE
  5
7490
330
7403
100
AcDbEntity
  8
标注
370
    -2
100
AcDbLine
 10
1069.416508941625
 20
110.5669898880409
 30
0.0
 11
1069.416508941625
 21
108.5599219055725
 31
0.0
  0
LINE
  5
7491
330
7403
100
AcDbEntity
  8
标注
370
    -2
100
AcDbLine
 10
1090.573989256506
 20
110.5669898880409
 30
0.0
 11
1090.573989256506
 21
108.5599219055725
 31
0.0
  0
LINE
  5
7492
330
7403
100
AcDbEntity
  8
标注
370
    -2
100
AcDbLine
 10
1070.066508941625
 20
108.8799219055725
 30
0.0
 11
1078.306350736173
 21
108.8799219055725
 31
0.0
  0
LINE
  5
7493
330
7403
100
AcDbEntity
  8
标注
370
    -2
100
AcDbLine
 10
1089.923989256506
 20
108.8799219055725
 30
0.0
 11
1081.684147461958
 21
108.8799219055725
 31
0.0
  0
SOLID
  5
7494
330
7403
100
AcDbEntity
  8
标注
100
AcDbTrace
 10
1070.066508941625
 20
108.9882552389058
 30
0.0
 11
1070.066508941625
 21
108.7715885722392
 31
0.0
 12
1069.416508941625
 22
108.8799219055725
 32
0.0
 13
1069.416508941625
 23
108.8799219055725
 33
0.0
  0
SOLID
  5
7495
330
7403
100
AcDbEntity
  8
标注
100
AcDbTrace
 10
1089.923989256506
 20
108.9882552389058
 30
0.0
 11
1089.923989256506
 21
108.7715885722392
 31
0.0
 12
1090.573989256506
 22
108.8799219055725
 32
0.0
 13
1090.573989256506
 23
108.8799219055725
 33
0.0
  0
MTEXT
  5
7496
330
7403
100
AcDbEntity
  8
标注
100
AcDbMText
 10
1079.995249099066
 20
108.8799219055725
 30
0.0
 40
0.65
 41
0.0
 71
     5
 72
     1
  1
\A1;21 1/8"
 73
     1
 44
1.0
  0
POINT
  5
7497
330
7403
100
AcDbEntity
  8
DEFPOINTS
 62
     0
100
AcDbPoint
 10
1069.416508941625
 20
111.4469898880409
 30
0.0
  0
POINT
  5
7498
330
7403
100
AcDbEntity
  8
DEFPOINTS
 62
     0
100
AcDbPoint
 10
1090.573989256506
 20
111.4469898880409
 30
0.0
  0
POINT
  5
7499
330
7403
100
AcDbEntity
  8
DEFPOINTS
 62
     0
100
AcDbPoint
 10
1090.573989256506
 20
108.8799219055725
 30
0.0
  0
ENDBLK
  5
7405
330
7403
100
AcDbEntity
  8
0
100
AcDbBlockEnd
  0
BLOCK
  5
7412
330
7411
100
AcDbEntity
  8
0
100
AcDbBlockBegin
  2
*D39
 70
     1
 10
0.0
 20
0.0
 30
0.0
  3
*D39
  1

  0
LINE
  5
749A
330
7411
100
AcDbEntity
  8
标注
370
    -2
100
AcDbLine
 10
1090.981548311638
 20
110.9745489431436
 30
0.0
 11
1093.014514571957
 21
110.9745489431436
 31
0.0
  0
LINE
  5
749B
330
7411
100
AcDbEntity
  8
标注
370
    -2
100
AcDbLine
 10
1090.981548311638
 20
127.1320292580533
 30
0.0
 11
1093.014514571957
 21
127.1320292580533
 31
0.0
  0
LINE
  5
749C
330
7411
100
AcDbEntity
  8
标注
370
    -2
100
AcDbLine
 10
1092.694514571957
 20
111.6245489431437
 30
0.0
 11
1092.694514571957
 21
117.400526481226
 31
0.0
  0
LINE
  5
749D
330
7411
100
AcDbEntity
  8
标注
370
    -2
100
AcDbLine
 10
1092.694514571957
 20
126.4820292580533
 30
0.0
 11
1092.694514571957
 21
120.7060517199709
 31
0.0
  0
SOLID
  5
749E
330
7411
100
AcDbEntity
  8
标注
100
AcDbTrace
 10
1092.586181238623
 20
111.6245489431437
 30
0.0
 11
1092.80284790529
 21
111.6245489431437
 31
0.0
 12
1092.694514571957
 22
110.9745489431436
 32
0.0
 13
1092.694514571957
 23
110.9745489431436
 33
0.0
  0
SOLID
  5
749F
330
7411
100
AcDbEntity
  8
标注
100
AcDbTrace
 10
1092.586181238623
 20
126.4820292580533
 30
0.0
 11
1092.80284790529
 21
126.4820292580533
 31
0.0
 12
1092.694514571957
 22
127.1320292580533
 32
0.0
 13
1092.694514571957
 23
127.1320292580533
 33
0.0
  0
MTEXT
  5
74A0
330
7411
100
AcDbEntity
  8
标注
100
AcDbMText
 10
1092.694514571957
 20
119.0532891005987
 30
0.0
 40
0.65
 41
0.0
 71
     5
 72
     1
  1
\A1;16 1/8"
 11
0.0000000000000001
 21
1.0
 31
0.0
 73
     1
 44
1.0
  0
POINT
  5
74A1
330
7411
100
AcDbEntity
  8
DEFPOINTS
 62
     0
100
AcDbPoint
 10
1090.101548311638
 20
110.9745489431436
 30
0.0
  0
POINT
  5
74A2
330
7411
100
AcDbEntity
  8
DEFPOINTS
 62
     0
100
AcDbPoint
 10
1090.101548311638
 20
127.1320292580533
 30
0.0
  0
POINT
  5
74A3
330
7411
100
AcDbEntity
  8
DEFPOINTS
 62
     0
100
AcDbPoint
 10
1092.694514571957
 20
127.1320292580533
 30
0.0
  0
ENDBLK
  5
7413
330
7411
100
AcDbEntity
  8
0
100
AcDbBlockEnd
  0
BLOCK
  5
7420
330
741F
100
AcDbEntity
  8
0
100
AcDbBlockBegin
  2
*D40
 70
     1
 10
0.0
 20
0.0
 30
0.0
  3
*D40
  1

  0
LINE
  5
74A4
330
741F
100
AcDbEntity
  8
标注
370
    -2
100
AcDbLine
 10
1069.086687221453
 20
127.4446031480695
 30
0.0
 11
1068.622100879818
 21
127.8992013565632
 31
0.0
  0
MTEXT
  5
74A5
330
741F
100
AcDbEntity
  8
标注
100
AcDbMText
 10
1068.976085307511
 20
128.324172192478
 30
0.0
 40
0.65
 41
0.0
 71
     5
 72
     1
  1
\A1;4-R1/2"
 11
0.7147482179008577
 21
-0.6993818592210898
 31
0.0
 73
     1
 44
1.0
  0
LINE
  5
74A6
330
741F
100
AcDbEntity
  8
标注
370
    -2
100
AcDbLine
 10
1069.888949886505
 20
126.6595883131734
 30
0.0
 11
1069.551273563088
 21
126.9900049395758
 31
0.0
  0
SOLID
  5
74A7
330
741F
100
AcDbEntity
  8
标注
100
AcDbTrace
 10
1069.162453589535
 20
127.5220342050088
 30
0.0
 11
1069.010920853371
 21
127.3671720911303
 31
0.0
 12
1069.551273563088
 22
126.9900049395758
 32
0.0
 13
1069.551273563088
 23
126.9900049395758
 33
0.0
  0
POINT
  5
74A8
330
741F
100
AcDbEntity
  8
DEFPOINTS
 62
     0
100
AcDbPoint
 10
1069.551273563088
 20
126.9900049395758
 30
0.0
  0
POINT
  5
74A9
330
741F
100
AcDbEntity
  8
DEFPOINTS
 62
     0
100
AcDbPoint
 10
1069.888949886505
 20
126.6595883131734
 30
0.0
  0
ENDBLK
  5
7421
330
741F
100
AcDbEntity
  8
0
100
AcDbBlockEnd
  0
BLOCK
  5
7650
330
764F
100
AcDbEntity
  8
0
100
AcDbBlockBegin
  2
*D41
 70
     1
 10
0.0
 20
0.0
 30
0.0
  3
*D41
  1

  0
LINE
  5
76EE
330
764F
100
AcDbEntity
  8
标注
  6
Continuous
370
    -2
100
AcDbLine
 10
1089.002466363515
 20
140.5823268685727
 30
0.0
 11
1089.002466363515
 21
137.6891985751556
 31
0.0
  0
LINE
  5
76EF
330
764F
100
AcDbEntity
  8
标注
  6
Continuous
370
    -2
100
AcDbLine
 10
1108.002428363531
 20
140.5823268685727
 30
0.0
 11
1108.002428363531
 21
137.6891985751556
 31
0.0
  0
LINE
  5
76F0
330
764F
100
AcDbEntity
  8
标注
  6
Continuous
370
    -2
100
AcDbLine
 10
1089.652466363515
 20
138.0091985751556
 30
0.0
 11
1097.60698351632
 21
138.0091985751556
 31
0.0
  0
LINE
  5
76F1
330
764F
100
AcDbEntity
  8
标注
  6
Continuous
370
    -2
100
AcDbLine
 10
1107.35242836353
 20
138.0091985751556
 30
0.0
 11
1099.397911210726
 21
138.0091985751556
 31
0.0
  0
SOLID
  5
76F2
330
764F
100
AcDbEntity
  8
标注
100
AcDbTrace
 10
1089.652466363515
 20
138.1175319084889
 30
0.0
 11
1089.652466363515
 21
137.9008652418223
 31
0.0
 12
1089.002466363515
 22
138.0091985751556
 32
0.0
 13
1089.002466363515
 23
138.0091985751556
 33
0.0
  0
SOLID
  5
76F3
330
764F
100
AcDbEntity
  8
标注
100
AcDbTrace
 10
1107.35242836353
 20
138.1175319084889
 30
0.0
 11
1107.35242836353
 21
137.9008652418223
 31
0.0
 12
1108.002428363531
 22
138.0091985751556
 32
0.0
 13
1108.002428363531
 23
138.0091985751556
 33
0.0
  0
MTEXT
  5
76F4
330
764F
100
AcDbEntity
  8
标注
100
AcDbMText
 10
1098.502447363523
 20
138.0091985751556
 30
0.0
 40
0.65
 41
0.0
 71
     5
 72
     1
  1
\A1;19"
 73
     1
 44
1.0
  0
POINT
  5
76F5
330
764F
100
AcDbEntity
  8
DEFPOINTS
 62
     0
100
AcDbPoint
 10
1089.002466363515
 20
141.4623268685727
 30
0.0
  0
POINT
  5
76F6
330
764F
100
AcDbEntity
  8
DEFPOINTS
 62
     0
100
AcDbPoint
 10
1108.002428363531
 20
141.4623268685727
 30
0.0
  0
POINT
  5
76F7
330
764F
100
AcDbEntity
  8
DEFPOINTS
 62
     0
100
AcDbPoint
 10
1108.002428363531
 20
138.0091985751556
 30
0.0
  0
ENDBLK
  5
7651
330
764F
100
AcDbEntity
  8
0
100
AcDbBlockEnd
  0
BLOCK
  5
765E
330
765D
100
AcDbEntity
  8
0
100
AcDbBlockBegin
  2
*D42
 70
     1
 10
0.0
 20
0.0
 30
0.0
  3
*D42
  1

  0
LINE
  5
76F8
330
765D
100
AcDbEntity
  8
标注
  6
Continuous
370
    -2
100
AcDbLine
 10
1109.002426363515
 20
140.5823268685727
 30
0.0
 11
1109.002426363515
 21
137.6891985751556
 31
0.0
  0
LINE
  5
76F9
330
765D
100
AcDbEntity
  8
标注
  6
Continuous
370
    -2
100
AcDbLine
 10
1119.002406363538
 20
140.5823268685727
 30
0.0
 11
1119.002406363538
 21
137.6891985751556
 31
0.0
  0
LINE
  5
76FA
330
765D
100
AcDbEntity
  8
标注
  6
Continuous
370
    -2
100
AcDbLine
 10
1109.652426363515
 20
138.0091985751556
 30
0.0
 11
1113.106952516323
 21
138.0091985751556
 31
0.0
  0
LINE
  5
76FB
330
765D
100
AcDbEntity
  8
标注
  6
Continuous
370
    -2
100
AcDbLine
 10
1118.352406363538
 20
138.0091985751556
 30
0.0
 11
1114.89788021073
 21
138.0091985751556
 31
0.0
  0
SOLID
  5
76FC
330
765D
100
AcDbEntity
  8
标注
100
AcDbTrace
 10
1109.652426363515
 20
138.1175319084889
 30
0.0
 11
1109.652426363515
 21
137.9008652418223
 31
0.0
 12
1109.002426363515
 22
138.0091985751556
 32
0.0
 13
1109.002426363515
 23
138.0091985751556
 33
0.0
  0
SOLID
  5
76FD
330
765D
100
AcDbEntity
  8
标注
100
AcDbTrace
 10
1118.352406363538
 20
138.1175319084889
 30
0.0
 11
1118.352406363538
 21
137.9008652418223
 31
0.0
 12
1119.002406363538
 22
138.0091985751556
 32
0.0
 13
1119.002406363538
 23
138.0091985751556
 33
0.0
  0
MTEXT
  5
76FE
330
765D
100
AcDbEntity
  8
标注
100
AcDbMText
 10
1114.002416363527
 20
138.0091985751556
 30
0.0
 40
0.65
 41
0.0
 71
     5
 72
     1
  1
\A1;10"
 73
     1
 44
1.0
  0
POINT
  5
76FF
330
765D
100
AcDbEntity
  8
DEFPOINTS
 62
     0
100
AcDbPoint
 10
1109.002426363515
 20
141.4623268685727
 30
0.0
  0
POINT
  5
7700
330
765D
100
AcDbEntity
  8
DEFPOINTS
 62
     0
100
AcDbPoint
 10
1119.002406363538
 20
141.4623268685727
 30
0.0
  0
POINT
  5
7701
330
765D
100
AcDbEntity
  8
DEFPOINTS
 62
     0
100
AcDbPoint
 10
1119.002406363538
 20
138.0091985751556
 30
0.0
  0
ENDBLK
  5
765F
330
765D
100
AcDbEntity
  8
0
100
AcDbBlockEnd
  0
BLOCK
  5
766C
330
766B
100
AcDbEntity
  8
0
100
AcDbBlockBegin
  2
*D43
 70
     1
 10
0.0
 20
0.0
 30
0.0
  3
*D43
  1

  0
LINE
  5
7702
330
766B
100
AcDbEntity
  8
标注
  6
Continuous
370
    -2
100
AcDbLine
 10
1088.002468363515
 20
140.0362030444613
 30
0.0
 11
1088.002468363515
 21
135.8571036128273
 31
0.0
  0
LINE
  5
7703
330
766B
100
AcDbEntity
  8
标注
  6
Continuous
370
    -2
100
AcDbLine
 10
1120.002404363523
 20
140.0362030444613
 30
0.0
 11
1120.002404363523
 21
135.8571036128273
 31
0.0
  0
LINE
  5
7704
330
766B
100
AcDbEntity
  8
标注
  6
Continuous
370
    -2
100
AcDbLine
 10
1088.652468363515
 20
136.1771036128273
 30
0.0
 11
1103.076600756425
 21
136.1771036128273
 31
0.0
  0
LINE
  5
7705
330
766B
100
AcDbEntity
  8
标注
  6
Continuous
370
    -2
100
AcDbLine
 10
1119.352404363523
 20
136.1771036128273
 30
0.0
 11
1104.928271970613
 21
136.1771036128273
 31
0.0
  0
SOLID
  5
7706
330
766B
100
AcDbEntity
  8
标注
100
AcDbTrace
 10
1088.652468363515
 20
136.2854369461606
 30
0.0
 11
1088.652468363515
 21
136.068770279494
 31
0.0
 12
1088.002468363515
 22
136.1771036128273
 32
0.0
 13
1088.002468363515
 23
136.1771036128273
 33
0.0
  0
SOLID
  5
7707
330
766B
100
AcDbEntity
  8
标注
100
AcDbTrace
 10
1119.352404363523
 20
136.2854369461606
 30
0.0
 11
1119.352404363523
 21
136.068770279494
 31
0.0
 12
1120.002404363523
 22
136.1771036128273
 32
0.0
 13
1120.002404363523
 23
136.1771036128273
 33
0.0
  0
MTEXT
  5
7708
330
766B
100
AcDbEntity
  8
标注
100
AcDbMText
 10
1104.002436363519
 20
136.1771036128273
 30
0.0
 40
0.65
 41
0.0
 71
     5
 72
     1
  1
\A1;32"
 73
     1
 44
1.0
  0
POINT
  5
7709
330
766B
100
AcDbEntity
  8
DEFPOINTS
 62
     0
100
AcDbPoint
 10
1088.002468363515
 20
140.9162030444613
 30
0.0
  0
POINT
  5
770A
330
766B
100
AcDbEntity
  8
DEFPOINTS
 62
     0
100
AcDbPoint
 10
1120.002404363523
 20
140.9162030444613
 30
0.0
  0
POINT
  5
770B
330
766B
100
AcDbEntity
  8
DEFPOINTS
 62
     0
100
AcDbPoint
 10
1120.002404363523
 20
136.1771036128273
 30
0.0
  0
ENDBLK
  5
766D
330
766B
100
AcDbEntity
  8
0
100
AcDbBlockEnd
  0
BLOCK
  5
767A
330
7679
100
AcDbEntity
  8
0
100
AcDbBlockBegin
  2
*D44
 70
     1
 10
0.0
 20
0.0
 30
0.0
  3
*D44
  1

  0
LINE
  5
770C
330
7679
100
AcDbEntity
  8
标注
  6
Continuous
370
    -2
100
AcDbLine
 10
1119.488706363523
 20
141.0686268685727
 30
0.0
 11
1122.431167740042
 21
141.0686268685727
 31
0.0
  0
LINE
  5
770D
330
7679
100
AcDbEntity
  8
标注
  6
Continuous
370
    -2
100
AcDbLine
 10
1119.488706363523
 20
157.0685948685608
 30
0.0
 11
1122.431167740042
 21
157.0685948685608
 31
0.0
  0
LINE
  5
770E
330
7679
100
AcDbEntity
  8
标注
  6
Continuous
370
    -2
100
AcDbLine
 10
1122.111167740041
 20
141.7186268685727
 30
0.0
 11
1122.111167740041
 21
148.1731470213635
 31
0.0
  0
LINE
  5
770F
330
7679
100
AcDbEntity
  8
标注
  6
Continuous
370
    -2
100
AcDbLine
 10
1122.111167740041
 20
156.4185948685608
 30
0.0
 11
1122.111167740041
 21
149.96407471577
 31
0.0
  0
SOLID
  5
7710
330
7679
100
AcDbEntity
  8
标注
100
AcDbTrace
 10
1122.002834406708
 20
141.7186268685727
 30
0.0
 11
1122.219501073375
 21
141.7186268685727
 31
0.0
 12
1122.111167740041
 22
141.0686268685727
 32
0.0
 13
1122.111167740041
 23
141.0686268685727
 33
0.0
  0
SOLID
  5
7711
330
7679
100
AcDbEntity
  8
标注
100
AcDbTrace
 10
1122.002834406708
 20
156.4185948685608
 30
0.0
 11
1122.219501073375
 21
156.4185948685608
 31
0.0
 12
1122.111167740041
 22
157.0685948685608
 32
0.0
 13
1122.111167740041
 23
157.0685948685608
 33
0.0
  0
MTEXT
  5
7712
330
7679
100
AcDbEntity
  8
标注
100
AcDbMText
 10
1122.111167740041
 20
149.0686108685669
 30
0.0
 40
0.65
 41
0.0
 71
     5
 72
     1
  1
\A1;16"
 11
0.0000000000000001
 21
1.0
 31
0.0
 73
     1
 44
1.0
  0
POINT
  5
7713
330
7679
100
AcDbEntity
  8
DEFPOINTS
 62
     0
100
AcDbPoint
 10
1118.608706363523
 20
141.0686268685727
 30
0.0
  0
POINT
  5
7714
330
7679
100
AcDbEntity
  8
DEFPOINTS
 62
     0
100
AcDbPoint
 10
1118.608706363523
 20
157.0685948685608
 30
0.0
  0
POINT
  5
7715
330
7679
100
AcDbEntity
  8
DEFPOINTS
 62
     0
100
AcDbPoint
 10
1122.111167740041
 20
157.0685948685608
 30
0.0
  0
ENDBLK
  5
767B
330
7679
100
AcDbEntity
  8
0
100
AcDbBlockEnd
  0
BLOCK
  5
7688
330
7687
100
AcDbEntity
  8
0
100
AcDbBlockBegin
  2
*D45
 70
     1
 10
0.0
 20
0.0
 30
0.0
  3
*D45
  1

  0
LINE
  5
7716
330
7687
100
AcDbEntity
  8
标注
  6
Continuous
370
    -2
100
AcDbLine
 10
1119.882406363538
 20
140.0686288685728
 30
0.0
 11
1124.289111218852
 21
140.0686288685728
 31
0.0
  0
LINE
  5
7717
330
7687
100
AcDbEntity
  8
标注
  6
Continuous
370
    -2
100
AcDbLine
 10
1119.882406363538
 20
158.0685928685606
 30
0.0
 11
1124.289111218852
 21
158.0685928685606
 31
0.0
  0
LINE
  5
7718
330
7687
100
AcDbEntity
  8
标注
  6
Continuous
370
    -2
100
AcDbLine
 10
1123.969111218852
 20
140.7186288685728
 30
0.0
 11
1123.969111218852
 21
148.1731470213635
 31
0.0
  0
LINE
  5
7719
330
7687
100
AcDbEntity
  8
标注
  6
Continuous
370
    -2
100
AcDbLine
 10
1123.969111218852
 20
157.4185928685606
 30
0.0
 11
1123.969111218852
 21
149.96407471577
 31
0.0
  0
SOLID
  5
771A
330
7687
100
AcDbEntity
  8
标注
100
AcDbTrace
 10
1123.860777885519
 20
140.7186288685728
 30
0.0
 11
1124.077444552186
 21
140.7186288685728
 31
0.0
 12
1123.969111218852
 22
140.0686288685728
 32
0.0
 13
1123.969111218852
 23
140.0686288685728
 33
0.0
  0
SOLID
  5
771B
330
7687
100
AcDbEntity
  8
标注
100
AcDbTrace
 10
1123.860777885519
 20
157.4185928685606
 30
0.0
 11
1124.077444552186
 21
157.4185928685606
 31
0.0
 12
1123.969111218852
 22
158.0685928685606
 32
0.0
 13
1123.969111218852
 23
158.0685928685606
 33
0.0
  0
MTEXT
  5
771C
330
7687
100
AcDbEntity
  8
标注
100
AcDbMText
 10
1123.969111218852
 20
149.0686108685669
 30
0.0
 40
0.65
 41
0.0
 71
     5
 72
     1
  1
\A1;18"
 11
0.0000000000000001
 21
1.0
 31
0.0
 73
     1
 44
1.0
  0
POINT
  5
771D
330
7687
100
AcDbEntity
  8
DEFPOINTS
 62
     0
100
AcDbPoint
 10
1119.002406363538
 20
140.0686288685728
 30
0.0
  0
POINT
  5
771E
330
7687
100
AcDbEntity
  8
DEFPOINTS
 62
     0
100
AcDbPoint
 10
1119.002406363538
 20
158.0685928685606
 30
0.0
  0
POINT
  5
771F
330
7687
100
AcDbEntity
  8
DEFPOINTS
 62
     0
100
AcDbPoint
 10
1123.969111218852
 20
158.0685928685606
 30
0.0
  0
ENDBLK
  5
7689
330
7687
100
AcDbEntity
  8
0
100
AcDbBlockEnd
  0
BLOCK
  5
7696
330
7695
100
AcDbEntity
  8
0
100
AcDbBlockBegin
  2
*D46
 70
     1
 10
0.0
 20
0.0
 30
0.0
  3
*D46
  1

  0
LINE
  5
7720
330
7695
100
AcDbEntity
  8
标注
  6
Continuous
370
    -2
100
AcDbLine
 10
1088.923726363532
 20
109.9332343613442
 30
0.0
 11
1088.923726363532
 21
107.2728605476784
 31
0.0
  0
LINE
  5
7721
330
7695
100
AcDbEntity
  8
标注
  6
Continuous
370
    -2
100
AcDbLine
 10
1119.081146363535
 20
109.9332343613442
 30
0.0
 11
1119.081146363535
 21
107.2728605476784
 31
0.0
  0
LINE
  5
7722
330
7695
100
AcDbEntity
  8
标注
  6
Continuous
370
    -2
100
AcDbLine
 10
1089.573726363532
 20
107.5928605476784
 30
0.0
 11
1102.31930198427
 21
107.5928605476784
 31
0.0
  0
LINE
  5
7723
330
7695
100
AcDbEntity
  8
标注
  6
Continuous
370
    -2
100
AcDbLine
 10
1118.431146363535
 20
107.5928605476784
 30
0.0
 11
1105.685570742797
 21
107.5928605476784
 31
0.0
  0
SOLID
  5
7724
330
7695
100
AcDbEntity
  8
标注
100
AcDbTrace
 10
1089.573726363532
 20
107.7011938810117
 30
0.0
 11
1089.573726363532
 21
107.484527214345
 31
0.0
 12
1088.923726363532
 22
107.5928605476784
 32
0.0
 13
1088.923726363532
 23
107.5928605476784
 33
0.0
  0
SOLID
  5
7725
330
7695
100
AcDbEntity
  8
标注
100
AcDbTrace
 10
1118.431146363535
 20
107.7011938810117
 30
0.0
 11
1118.431146363535
 21
107.484527214345
 31
0.0
 12
1119.081146363535
 22
107.5928605476784
 32
0.0
 13
1119.081146363535
 23
107.5928605476784
 33
0.0
  0
MTEXT
  5
7726
330
7695
100
AcDbEntity
  8
标注
100
AcDbMText
 10
1104.002436363534
 20
107.5928605476784
 30
0.0
 40
0.65
 41
0.0
 71
     5
 72
     1
  1
\A1;30 1/8"
 73
     1
 44
1.0
  0
POINT
  5
7727
330
7695
100
AcDbEntity
  8
DEFPOINTS
 62
     0
100
AcDbPoint
 10
1088.923726363532
 20
110.8132343613442
 30
0.0
  0
POINT
  5
7728
330
7695
100
AcDbEntity
  8
DEFPOINTS
 62
     0
100
AcDbPoint
 10
1119.081146363535
 20
110.8132343613442
 30
0.0
  0
POINT
  5
7729
330
7695
100
AcDbEntity
  8
DEFPOINTS
 62
     0
100
AcDbPoint
 10
1119.081146363535
 20
107.5928605476784
 30
0.0
  0
ENDBLK
  5
7697
330
7695
100
AcDbEntity
  8
0
100
AcDbBlockEnd
  0
BLOCK
  5
76A4
330
76A3
100
AcDbEntity
  8
0
100
AcDbBlockBegin
  2
*D47
 70
     1
 10
0.0
 20
0.0
 30
0.0
  3
*D47
  1

  0
LINE
  5
772A
330
76A3
100
AcDbEntity
  8
标注
  6
Continuous
370
    -2
100
AcDbLine
 10
1119.488706363523
 20
110.340794361361
 30
0.0
 11
1121.626027781037
 21
110.340794361361
 31
0.0
  0
LINE
  5
772B
330
76A3
100
AcDbEntity
  8
标注
  6
Continuous
370
    -2
100
AcDbLine
 10
1119.488706363523
 20
126.4982423613614
 30
0.0
 11
1121.626027781037
 21
126.4982423613614
 31
0.0
  0
LINE
  5
772C
330
76A3
100
AcDbEntity
  8
标注
  6
Continuous
370
    -2
100
AcDbLine
 10
1121.306027781037
 20
110.990794361361
 30
0.0
 11
1121.306027781037
 21
116.7667557419888
 31
0.0
  0
LINE
  5
772D
330
76A3
100
AcDbEntity
  8
标注
  6
Continuous
370
    -2
100
AcDbLine
 10
1121.306027781037
 20
125.8482423613614
 30
0.0
 11
1121.306027781037
 21
120.0722809807336
 31
0.0
  0
SOLID
  5
772E
330
76A3
100
AcDbEntity
  8
标注
100
AcDbTrace
 10
1121.197694447704
 20
110.990794361361
 30
0.0
 11
1121.41436111437
 21
110.990794361361
 31
0.0
 12
1121.306027781037
 22
110.340794361361
 32
0.0
 13
1121.306027781037
 23
110.340794361361
 33
0.0
  0
SOLID
  5
772F
330
76A3
100
AcDbEntity
  8
标注
100
AcDbTrace
 10
1121.197694447704
 20
125.8482423613614
 30
0.0
 11
1121.41436111437
 21
125.8482423613614
 31
0.0
 12
1121.306027781037
 22
126.4982423613614
 32
0.0
 13
1121.306027781037
 23
126.4982423613614
 33
0.0
  0
MTEXT
  5
7730
330
76A3
100
AcDbEntity
  8
标注
100
AcDbMText
 10
1121.306027781037
 20
118.4195183613614
 30
0.0
 40
0.65
 41
0.0
 71
     5
 72
     1
  1
\A1;16 1/8"
 11
0.0000000000000001
 21
1.0
 31
0.0
 73
     1
 44
1.0
  0
POINT
  5
7731
330
76A3
100
AcDbEntity
  8
DEFPOINTS
 62
     0
100
AcDbPoint
 10
1118.608706363523
 20
110.340794361361
 30
0.0
  0
POINT
  5
7732
330
76A3
100
AcDbEntity
  8
DEFPOINTS
 62
     0
100
AcDbPoint
 10
1118.608706363523
 20
126.4982423613614
 30
0.0
  0
POINT
  5
7733
330
76A3
100
AcDbEntity
  8
DEFPOINTS
 62
     0
100
AcDbPoint
 10
1121.306027781037
 20
126.4982423613614
 30
0.0
  0
ENDBLK
  5
76A5
330
76A3
100
AcDbEntity
  8
0
100
AcDbBlockEnd
  0
BLOCK
  5
76CA
330
76C9
100
AcDbEntity
  8
0
100
AcDbBlockBegin
  2
*D48
 70
     1
 10
0.0
 20
0.0
 30
0.0
  3
*D48
  1

  0
LINE
  5
7734
330
76C9
100
AcDbEntity
  8
标注
  6
Continuous
370
    -2
100
AcDbLine
 10
1120.882404363523
 20
176.8214766457615
 30
0.0
 11
1122.281853891465
 21
176.8214766457615
 31
0.0
  0
LINE
  5
7735
330
76C9
100
AcDbEntity
  8
标注
  6
Continuous
370
    -2
100
AcDbLine
 10
1120.882404363523
 20
168.8214766457616
 30
0.0
 11
1122.281853891465
 21
168.8214766457616
 31
0.0
  0
LINE
  5
7736
330
76C9
100
AcDbEntity
  8
标注
  6
Continuous
370
    -2
100
AcDbLine
 10
1121.961853891465
 20
176.1714766457616
 30
0.0
 11
1121.961853891465
 21
173.4954705066074
 31
0.0
  0
LINE
  5
7737
330
76C9
100
AcDbEntity
  8
标注
  6
Continuous
370
    -2
100
AcDbLine
 10
1121.961853891465
 20
169.4714766457616
 30
0.0
 11
1121.961853891465
 21
172.1474827849157
 31
0.0
  0
SOLID
  5
7738
330
76C9
100
AcDbEntity
  8
标注
100
AcDbTrace
 10
1121.853520558132
 20
176.1714766457616
 30
0.0
 11
1122.070187224799
 21
176.1714766457616
 31
0.0
 12
1121.961853891465
 22
176.8214766457615
 32
0.0
 13
1121.961853891465
 23
176.8214766457615
 33
0.0
  0
SOLID
  5
7739
330
76C9
100
AcDbEntity
  8
标注
100
AcDbTrace
 10
1121.853520558132
 20
169.4714766457616
 30
0.0
 11
1122.070187224799
 21
169.4714766457616
 31
0.0
 12
1121.961853891465
 22
168.8214766457616
 32
0.0
 13
1121.961853891465
 23
168.8214766457616
 33
0.0
  0
MTEXT
  5
773A
330
76C9
100
AcDbEntity
  8
标注
100
AcDbMText
 10
1121.961853891465
 20
172.8214766457617
 30
0.0
 40
0.65
 41
0.0
 71
     5
 72
     1
  1
\A1;8"
 11
0.0000000000000001
 21
1.0
 31
0.0
 73
     1
 44
1.0
  0
POINT
  5
773B
330
76C9
100
AcDbEntity
  8
DEFPOINTS
 62
     0
100
AcDbPoint
 10
1120.002404363523
 20
176.8214766457615
 30
0.0
  0
POINT
  5
773C
330
76C9
100
AcDbEntity
  8
DEFPOINTS
 62
     0
100
AcDbPoint
 10
1120.002404363523
 20
168.8214766457616
 30
0.0
  0
POINT
  5
773D
330
76C9
100
AcDbEntity
  8
DEFPOINTS
 62
     0
100
AcDbPoint
 10
1121.961853891465
 20
168.8214766457616
 30
0.0
  0
ENDBLK
  5
76CB
330
76C9
100
AcDbEntity
  8
0
100
AcDbBlockEnd
  0
BLOCK
  5
76D8
330
76D7
100
AcDbEntity
  8
0
100
AcDbBlockBegin
  2
*D49
 70
     1
 10
0.0
 20
0.0
 30
0.0
  3
*D49
  1

  0
LINE
  5
773E
330
76D7
100
AcDbEntity
  8
标注
  6
Continuous
370
    -2
100
AcDbLine
 10
1087.122468363515
 20
176.8214766457616
 30
0.0
 11
1085.734540189627
 21
176.8214766457616
 31
0.0
  0
LINE
  5
773F
330
76D7
100
AcDbEntity
  8
标注
  6
Continuous
370
    -2
100
AcDbLine
 10
1087.122468363515
 20
167.8214766457616
 30
0.0
 11
1085.734540189627
 21
167.8214766457616
 31
0.0
  0
LINE
  5
7740
330
76D7
100
AcDbEntity
  8
标注
  6
Continuous
370
    -2
100
AcDbLine
 10
1086.054540189627
 20
176.1714766457616
 30
0.0
 11
1086.054540189627
 21
172.9950271232513
 31
0.0
  0
LINE
  5
7741
330
76D7
100
AcDbEntity
  8
标注
  6
Continuous
370
    -2
100
AcDbLine
 10
1086.054540189627
 20
168.4714766457616
 30
0.0
 11
1086.054540189627
 21
171.6479261682718
 31
0.0
  0
SOLID
  5
7742
330
76D7
100
AcDbEntity
  8
标注
100
AcDbTrace
 10
1085.946206856294
 20
176.1714766457616
 30
0.0
 11
1086.16287352296
 21
176.1714766457616
 31
0.0
 12
1086.054540189627
 22
176.8214766457616
 32
0.0
 13
1086.054540189627
 23
176.8214766457616
 33
0.0
  0
SOLID
  5
7743
330
76D7
100
AcDbEntity
  8
标注
100
AcDbTrace
 10
1085.946206856294
 20
168.4714766457616
 30
0.0
 11
1086.16287352296
 21
168.4714766457616
 31
0.0
 12
1086.054540189627
 22
167.8214766457616
 32
0.0
 13
1086.054540189627
 23
167.8214766457616
 33
0.0
  0
MTEXT
  5
7744
330
76D7
100
AcDbEntity
  8
标注
100
AcDbMText
 10
1086.054540189627
 20
172.3214766457618
 30
0.0
 40
0.65
 41
0.0
 71
     5
 72
     1
  1
\A1;9"
 11
0.0000000000000001
 21
1.0
 31
0.0
 73
     1
 44
1.0
  0
POINT
  5
7745
330
76D7
100
AcDbEntity
  8
DEFPOINTS
 62
     0
100
AcDbPoint
 10
1088.002468363515
 20
176.8214766457615
 30
0.0
  0
POINT
  5
7746
330
76D7
100
AcDbEntity
  8
DEFPOINTS
 62
     0
100
AcDbPoint
 10
1088.002468363515
 20
167.8214766457616
 30
0.0
  0
POINT
  5
7747
330
76D7
100
AcDbEntity
  8
DEFPOINTS
 62
     0
100
AcDbPoint
 10
1086.054540189627
 20
167.8214766457616
 30
0.0
  0
ENDBLK
  5
76D9
330
76D7
100
AcDbEntity
  8
0
100
AcDbBlockEnd
  0
BLOCK
  5
76E6
330
76E5
100
AcDbEntity
  8
0
100
AcDbBlockBegin
  2
*D50
 70
     1
 10
0.0
 20
0.0
 30
0.0
  3
*D50
  1

  0
LINE
  5
7748
330
76E5
100
AcDbEntity
  8
标注
  6
Continuous
370
    -2
100
AcDbLine
 10
1088.765748733982
 20
109.8845551024104
 30
0.0
 11
1088.400676695213
 21
109.3467610837484
 31
0.0
  0
MTEXT
  5
7749
330
76E5
100
AcDbEntity
  8
标注
100
AcDbMText
 10
1089.809945962861
 20
111.9147757660897
 30
0.0
 40
0.65
 41
0.0
 71
     5
 72
     1
  1
\A1;R1/2"
 11
0.5616492904145967
 21
0.8273754133262482
 31
0.0
 73
     1
 44
1.0
  0
LINE
  5
774A
330
76E5
100
AcDbEntity
  8
标注
  6
Continuous
370
    -2
100
AcDbLine
 10
1089.396166363515
 20
110.8132343613443
 30
0.0
 11
1089.130820772751
 21
110.4223491210725
 31
0.0
  0
SOLID
  5
774B
330
76E5
100
AcDbEntity
  8
标注
100
AcDbTrace
 10
1088.676116397538
 20
109.9454004422053
 30
0.0
 11
1088.855381070426
 21
109.8237097626155
 31
0.0
 12
1089.130820772751
 22
110.4223491210725
 32
0.0
 13
1089.130820772751
 23
110.4223491210725
 33
0.0
  0
POINT
  5
774C
330
76E5
100
AcDbEntity
  8
DEFPOINTS
 62
     0
100
AcDbPoint
 10
1089.130820772751
 20
110.4223491210725
 30
0.0
  0
POINT
  5
774D
330
76E5
100
AcDbEntity
  8
DEFPOINTS
 62
     0
100
AcDbPoint
 10
1089.396166363515
 20
110.8132343613443
 30
0.0
  0
ENDBLK
  5
76E7
330
76E5
100
AcDbEntity
  8
0
100
AcDbBlockEnd
  0
BLOCK
  5
7750
330
774F
100
AcDbEntity
  8
0
100
AcDbBlockBegin
  2
*D51
 70
     1
 10
0.0
 20
0.0
 30
0.0
  3
*D51
  1

  0
LINE
  5
7752
330
774F
100
AcDbEntity
  8
标注
  6
Continuous
370
    -2
100
AcDbLine
 10
1088.625848595287
 20
140.7581108321508
 30
0.0
 11
1088.146106763969
 21
140.3195361232553
 31
0.0
  0
MTEXT
  5
7753
330
774F
100
AcDbEntity
  8
标注
100
AcDbMText
 10
1090.016460788999
 20
142.5306366223589
 30
0.0
 40
0.65
 41
0.0
 71
     5
 72
     1
  1
\A1;R3/8"
 11
0.7380643558751542
 21
0.6747303213778033
 31
0.0
 73
     1
 44
1.0
  0
LINE
  5
7754
330
774F
100
AcDbEntity
  8
标注
  6
Continuous
370
    -2
100
AcDbLine
 10
1089.396166363515
 20
141.4623268685729
 30
0.0
 11
1089.105590426607
 21
141.1966855410464
 31
0.0
  0
SOLID
  5
7755
330
774F
100
AcDbEntity
  8
标注
100
AcDbTrace
 10
1088.552752810472
 20
140.8380678040373
 30
0.0
 11
1088.698944380104
 21
140.6781538602643
 31
0.0
 12
1089.105590426607
 22
141.1966855410464
 32
0.0
 13
1089.105590426607
 23
141.1966855410464
 33
0.0
  0
POINT
  5
7756
330
774F
100
AcDbEntity
  8
DEFPOINTS
 62
     0
100
AcDbPoint
 10
1089.105590426607
 20
141.1966855410464
 30
0.0
  0
POINT
  5
7757
330
774F
100
AcDbEntity
  8
DEFPOINTS
 62
     0
100
AcDbPoint
 10
1089.396166363515
 20
141.4623268685729
 30
0.0
  0
ENDBLK
  5
7751
330
774F
100
AcDbEntity
  8
0
100
AcDbBlockEnd
  0
BLOCK
  5
775A
330
7759
100
AcDbEntity
  8
0
100
AcDbBlockBegin
  2
*D52
 70
     1
 10
0.0
 20
0.0
 30
0.0
  3
*D52
  1

  0
LINE
  5
775C
330
7759
100
AcDbEntity
  8
标注
  6
Continuous
370
    -2
100
AcDbLine
 10
1088.781566144207
 20
167.437261592806
 30
0.0
 11
1088.398802761482
 21
166.9119120017289
 31
0.0
  0
MTEXT
  5
775D
330
7759
100
AcDbEntity
  8
标注
100
AcDbMText
 10
1089.903052705533
 20
169.3984104150958
 30
0.0
 40
0.65
 41
0.0
 71
     5
 72
     1
  1
\A1;R3/8"
 11
0.5888667426537984
 21
0.8082301401187073
 31
0.0
 73
     1
 44
1.0
  0
LINE
  5
775E
330
7759
100
AcDbEntity
  8
标注
  6
Continuous
370
    -2
100
AcDbLine
 10
1089.396166363514
 20
168.2808113900474
 30
0.0
 11
1089.164329526932
 21
167.9626111838831
 31
0.0
  0
SOLID
  5
775F
330
7759
100
AcDbEntity
  8
标注
100
AcDbTrace
 10
1088.694007879027
 20
167.5010554899269
 30
0.0
 11
1088.869124409386
 21
167.3734676956852
 31
0.0
 12
1089.164329526932
 22
167.9626111838831
 32
0.0
 13
1089.164329526932
 23
167.9626111838831
 33
0.0
  0
POINT
  5
7760
330
7759
100
AcDbEntity
  8
DEFPOINTS
 62
     0
100
AcDbPoint
 10
1089.164329526932
 20
167.9626111838831
 30
0.0
  0
POINT
  5
7761
330
7759
100
AcDbEntity
  8
DEFPOINTS
 62
     0
100
AcDbPoint
 10
1089.396166363514
 20
168.2808113900474
 30
0.0
  0
ENDBLK
  5
775B
330
7759
100
AcDbEntity
  8
0
100
AcDbBlockEnd
  0
BLOCK
  5
7764
330
7763
100
AcDbEntity
  8
0
100
AcDbBlockBegin
  2
*D53
 70
     1
 10
0.0
 20
0.0
 30
0.0
  3
*D53
  1

  0
LINE
  5
7766
330
7763
100
AcDbEntity
  8
标注
  6
Continuous
370
    -2
100
AcDbLine
 10
1108.854370253331
 20
168.4056477929943
 30
0.0
 11
1108.516973039927
 21
167.850073207194
 31
0.0
  0
MTEXT
  5
7767
330
7763
100
AcDbEntity
  8
标注
100
AcDbMText
 10
1109.911200867928
 20
170.4930410942526
 30
0.0
 40
0.65
 41
0.0
 71
     5
 72
     1
  1
\A1;R3/8"
 11
0.5190726360061987
 21
0.8547301320004907
 31
0.0
 73
     1
 44
1.0
  0
LINE
  5
7768
330
7763
100
AcDbEntity
  8
标注
  6
Continuous
370
    -2
100
AcDbLine
 10
1109.396126363531
 20
169.2977296317631
 30
0.0
 11
1109.191767466735
 21
168.9612223787946
 31
0.0
  0
SOLID
  5
7769
330
7763
100
AcDbEntity
  8
标注
100
AcDbTrace
 10
1108.761774489031
 20
168.461880661895
 30
0.0
 11
1108.946966017631
 21
168.3494149240936
 31
0.0
 12
1109.191767466735
 22
168.9612223787946
 32
0.0
 13
1109.191767466735
 23
168.9612223787946
 33
0.0
  0
POINT
  5
776A
330
7763
100
AcDbEntity
  8
DEFPOINTS
 62
     0
100
AcDbPoint
 10
1109.191767466735
 20
168.9612223787946
 30
0.0
  0
POINT
  5
776B
330
7763
100
AcDbEntity
  8
DEFPOINTS
 62
     0
100
AcDbPoint
 10
1109.396126363531
 20
169.2977296317631
 30
0.0
  0
ENDBLK
  5
7765
330
7763
100
AcDbEntity
  8
0
100
AcDbBlockEnd
  0
BLOCK
  5
784D
330
784C
100
AcDbEntity
  8
0
100
AcDbBlockBegin
  2
*D54
 70
     1
 10
0.0
 20
0.0
 30
0.0
  3
*D54
  1

  0
LINE
  5
7ABF
330
784C
100
AcDbEntity
  8
标注
  6
Continuous
370
    -2
100
AcDbLine
 10
1420.980767378755
 20
-375.7491507783095
 30
0.0
 11
1421.460509210074
 21
-376.1877254872049
 31
0.0
  0
MTEXT
  5
7AC0
330
784C
100
AcDbEntity
  8
标注
100
AcDbMText
 10
1419.590155185049
 20
-373.9766249881068
 30
0.0
 40
0.65
 41
0.0
 71
     5
 72
     1
  1
\A1;R3/8"
 11
0.7380643558751339
 21
-0.6747303213778256
 31
0.0
 73
     1
 44
1.0
  0
LINE
  5
7AC1
330
784C
100
AcDbEntity
  8
标注
  6
Continuous
370
    -2
100
AcDbLine
 10
1420.210449610529
 20
-375.0449347418885
 30
0.0
 11
1420.501025547436
 21
-375.3105760694139
 31
0.0
  0
SOLID
  5
7AC2
330
784C
100
AcDbEntity
  8
标注
100
AcDbTrace
 10
1421.053863163571
 20
-375.669193806423
 30
0.0
 11
1420.907671593939
 21
-375.829107750196
 31
0.0
 12
1420.501025547436
 22
-375.3105760694139
 32
0.0
 13
1420.501025547436
 23
-375.3105760694139
 33
0.0
  0
POINT
  5
7AC3
330
784C
100
AcDbEntity
  8
DEFPOINTS
 62
     0
100
AcDbPoint
 10
1420.501025547436
 20
-375.3105760694139
 30
0.0
  0
POINT
  5
7AC4
330
784C
100
AcDbEntity
  8
DEFPOINTS
 62
     0
100
AcDbPoint
 10
1420.210449610529
 20
-375.0449347418885
 30
0.0
  0
ENDBLK
  5
784E
330
784C
100
AcDbEntity
  8
0
100
AcDbBlockEnd
  0
BLOCK
  5
7856
330
7855
100
AcDbEntity
  8
0
100
AcDbBlockBegin
  2
*D55
 70
     1
 10
0.0
 20
0.0
 30
0.0
  3
*D55
  1

  0
LINE
  5
7A33
330
7855
100
AcDbEntity
  8
标注
  6
Continuous
370
    -2
100
AcDbLine
 10
1771.189888630229
 20
197.3085061378028
 30
0.0
 11
1776.695780896689
 21
189.7515704923113
 31
0.0
  0
MTEXT
  5
7A34
330
7855
100
AcDbEntity
  8
标注
100
AcDbMText
 10
1758.314975542947
 20
225.6955213740316
 30
0.0
 40
0.65
 41
0.0
 71
     5
 72
     1
  1
\A1;R10"
 11
0.5888667426533529
 21
-0.8082301401190317
 31
0.0
 73
     1
 44
1.0
  0
SOLID
  5
7A35
330
7855
100
AcDbEntity
  8
标注
100
AcDbTrace
 10
1776.78333916187
 20
189.8153643894319
 30
0.0
 11
1776.60822263151
 21
189.6877765951904
 31
0.0
 12
1777.078544279414
 22
189.2262209012336
 32
0.0
 13
1777.078544279414
 23
189.2262209012336
 33
0.0
  0
POINT
  5
7A36
330
7855
100
AcDbEntity
  8
DEFPOINTS
 62
     0
100
AcDbPoint
 10
1777.078544279414
 20
189.2262209012336
 30
0.0
  0
POINT
  5
7A37
330
7855
100
AcDbEntity
  8
DEFPOINTS
 62
     0
100
AcDbPoint
 10
1771.189888630229
 20
197.3085061378028
 30
0.0
  0
ENDBLK
  5
7857
330
7855
100
AcDbEntity
  8
0
100
AcDbBlockEnd
  0
BLOCK
  5
785F
330
785E
100
AcDbEntity
  8
0
100
AcDbBlockBegin
  2
*D56
 70
     1
 10
0.0
 20
0.0
 30
0.0
  3
*D56
  1

  0
LINE
  5
7A38
330
785E
100
AcDbEntity
  8
标注
  6
Continuous
370
    -2
100
AcDbLine
 10
1263.190904629824
 20
223.1382294773835
 30
0.0
 11
1268.044223395016
 21
215.1465198377839
 31
0.0
  0
MTEXT
  5
7A39
330
785E
100
AcDbEntity
  8
标注
100
AcDbMText
 10
1250.108012218116
 20
253.4991406246186
 30
0.0
 40
0.65
 41
0.0
 71
     5
 72
     1
  1
\A1;R10"
 11
0.5190726360052525
 21
-0.8547301320010655
 31
0.0
 73
     1
 44
1.0
  0
SOLID
  5
7A3A
330
785E
100
AcDbEntity
  8
标注
100
AcDbTrace
 10
1268.136819159316
 20
215.2027527066845
 30
0.0
 11
1267.951627630716
 21
215.0902869688833
 31
0.0
 12
1268.381620608419
 22
214.5909452519832
 32
0.0
 13
1268.381620608419
 23
214.5909452519832
 33
0.0
  0
POINT
  5
7A3B
330
785E
100
AcDbEntity
  8
DEFPOINTS
 62
     0
100
AcDbPoint
 10
1268.381620608419
 20
214.5909452519832
 30
0.0
  0
POINT
  5
7A3C
330
785E
100
AcDbEntity
  8
DEFPOINTS
 62
     0
100
AcDbPoint
 10
1263.190904629824
 20
223.1382294773835
 30
0.0
  0
ENDBLK
  5
7860
330
785E
100
AcDbEntity
  8
0
100
AcDbBlockEnd
  0
BLOCK
  5
7868
330
7867
100
AcDbEntity
  8
0
100
AcDbBlockBegin
  2
*D57
 70
     1
 10
0.0
 20
0.0
 30
0.0
  3
*D57
  1

  0
LINE
  5
78FA
330
7867
100
AcDbEntity
  8
标注
  6
Continuous
370
    -2
100
AcDbLine
 10
1140.70484862993
 20
141.0686268685727
 30
0.0
 11
1137.762387253412
 21
141.0686268685727
 31
0.0
  0
LINE
  5
78FB
330
7867
100
AcDbEntity
  8
标注
  6
Continuous
370
    -2
100
AcDbLine
 10
1140.70484862993
 20
157.0685948685608
 30
0.0
 11
1137.762387253412
 21
157.0685948685608
 31
0.0
  0
LINE
  5
78FC
330
7867
100
AcDbEntity
  8
标注
  6
Continuous
370
    -2
100
AcDbLine
 10
1138.082387253412
 20
141.7186268685727
 30
0.0
 11
1138.082387253412
 21
148.1731470213635
 31
0.0
  0
LINE
  5
78FD
330
7867
100
AcDbEntity
  8
标注
  6
Continuous
370
    -2
100
AcDbLine
 10
1138.082387253412
 20
156.4185948685608
 30
0.0
 11
1138.082387253412
 21
149.96407471577
 31
0.0
  0
SOLID
  5
78FE
330
7867
100
AcDbEntity
  8
标注
100
AcDbTrace
 10
1137.974053920078
 20
141.7186268685727
 30
0.0
 11
1138.190720586745
 21
141.7186268685727
 31
0.0
 12
1138.082387253412
 22
141.0686268685727
 32
0.0
 13
1138.082387253412
 23
141.0686268685727
 33
0.0
  0
SOLID
  5
78FF
330
7867
100
AcDbEntity
  8
标注
100
AcDbTrace
 10
1137.974053920078
 20
156.4185948685608
 30
0.0
 11
1138.190720586745
 21
156.4185948685608
 31
0.0
 12
1138.082387253412
 22
157.0685948685608
 32
0.0
 13
1138.082387253412
 23
157.0685948685608
 33
0.0
  0
MTEXT
  5
7900
330
7867
100
AcDbEntity
  8
标注
100
AcDbMText
 10
1138.082387253412
 20
149.0686108685669
 30
0.0
 40
0.65
 41
0.0
 71
     5
 72
     1
  1
\A1;16"
 11
0.0000000000000001
 21
1.0
 31
0.0
 73
     1
 44
1.0
  0
POINT
  5
7901
330
7867
100
AcDbEntity
  8
DEFPOINTS
 62
     0
100
AcDbPoint
 10
1141.584848629931
 20
141.0686268685727
 30
0.0
  0
POINT
  5
7902
330
7867
100
AcDbEntity
  8
DEFPOINTS
 62
     0
100
AcDbPoint
 10
1141.584848629931
 20
157.0685948685608
 30
0.0
  0
POINT
  5
7903
330
7867
100
AcDbEntity
  8
DEFPOINTS
 62
     0
100
AcDbPoint
 10
1138.082387253412
 20
157.0685948685608
 30
0.0
  0
ENDBLK
  5
7869
330
7867
100
AcDbEntity
  8
0
100
AcDbBlockEnd
  0
BLOCK
  5
7875
330
7874
100
AcDbEntity
  8
0
100
AcDbBlockBegin
  2
*D58
 70
     1
 10
0.0
 20
0.0
 30
0.0
  3
*D58
  1

  0
LINE
  5
7904
330
7874
100
AcDbEntity
  8
标注
  6
Continuous
370
    -2
100
AcDbLine
 10
1140.311148629915
 20
140.0686288685728
 30
0.0
 11
1135.904443774601
 21
140.0686288685728
 31
0.0
  0
LINE
  5
7905
330
7874
100
AcDbEntity
  8
标注
  6
Continuous
370
    -2
100
AcDbLine
 10
1140.311148629915
 20
158.0685928685606
 30
0.0
 11
1135.904443774601
 21
158.0685928685606
 31
0.0
  0
LINE
  5
7906
330
7874
100
AcDbEntity
  8
标注
  6
Continuous
370
    -2
100
AcDbLine
 10
1136.224443774601
 20
140.7186288685728
 30
0.0
 11
1136.224443774601
 21
148.1731470213635
 31
0.0
  0
LINE
  5
7907
330
7874
100
AcDbEntity
  8
标注
  6
Continuous
370
    -2
100
AcDbLine
 10
1136.224443774601
 20
157.4185928685606
 30
0.0
 11
1136.224443774601
 21
149.96407471577
 31
0.0
  0
SOLID
  5
7908
330
7874
100
AcDbEntity
  8
标注
100
AcDbTrace
 10
1136.116110441268
 20
140.7186288685728
 30
0.0
 11
1136.332777107934
 21
140.7186288685728
 31
0.0
 12
1136.224443774601
 22
140.0686288685728
 32
0.0
 13
1136.224443774601
 23
140.0686288685728
 33
0.0
  0
SOLID
  5
7909
330
7874
100
AcDbEntity
  8
标注
100
AcDbTrace
 10
1136.116110441268
 20
157.4185928685606
 30
0.0
 11
1136.332777107934
 21
157.4185928685606
 31
0.0
 12
1136.224443774601
 22
158.0685928685606
 32
0.0
 13
1136.224443774601
 23
158.0685928685606
 33
0.0
  0
MTEXT
  5
790A
330
7874
100
AcDbEntity
  8
标注
100
AcDbMText
 10
1136.224443774601
 20
149.0686108685669
 30
0.0
 40
0.65
 41
0.0
 71
     5
 72
     1
  1
\A1;18"
 11
0.0000000000000001
 21
1.0
 31
0.0
 73
     1
 44
1.0
  0
POINT
  5
790B
330
7874
100
AcDbEntity
  8
DEFPOINTS
 62
     0
100
AcDbPoint
 10
1141.191148629915
 20
140.0686288685728
 30
0.0
  0
POINT
  5
790C
330
7874
100
AcDbEntity
  8
DEFPOINTS
 62
     0
100
AcDbPoint
 10
1141.191148629915
 20
158.0685928685606
 30
0.0
  0
POINT
  5
790D
330
7874
100
AcDbEntity
  8
DEFPOINTS
 62
     0
100
AcDbPoint
 10
1136.224443774601
 20
158.0685928685606
 30
0.0
  0
ENDBLK
  5
7876
330
7874
100
AcDbEntity
  8
0
100
AcDbBlockEnd
  0
BLOCK
  5
7882
330
7881
100
AcDbEntity
  8
0
100
AcDbBlockBegin
  2
*D59
 70
     1
 10
0.0
 20
0.0
 30
0.0
  3
*D59
  1

  0
LINE
  5
7A7D
330
7881
100
AcDbEntity
  8
标注
  6
Continuous
370
    -2
100
AcDbLine
 10
1420.604149610528
 20
-375.9249347418888
 30
0.0
 11
1420.604149610528
 21
-378.8180630352921
 31
0.0
  0
LINE
  5
7A7E
330
7881
100
AcDbEntity
  8
标注
  6
Continuous
370
    -2
100
AcDbLine
 10
1401.604187610588
 20
-375.9249347418888
 30
0.0
 11
1401.604187610588
 21
-378.8180630352921
 31
0.0
  0
LINE
  5
7A7F
330
7881
100
AcDbEntity
  8
标注
  6
Continuous
370
    -2
100
AcDbLine
 10
1419.954149610528
 20
-378.4980630352921
 30
0.0
 11
1411.999632457761
 21
-378.4980630352921
 31
0.0
  0
LINE
  5
7A80
330
7881
100
AcDbEntity
  8
标注
  6
Continuous
370
    -2
100
AcDbLine
 10
1402.254187610588
 20
-378.4980630352921
 30
0.0
 11
1410.208704763355
 21
-378.4980630352921
 31
0.0
  0
SOLID
  5
7A81
330
7881
100
AcDbEntity
  8
标注
100
AcDbTrace
 10
1419.954149610528
 20
-378.3897297019588
 30
0.0
 11
1419.954149610528
 21
-378.6063963686254
 31
0.0
 12
1420.604149610528
 22
-378.4980630352921
 32
0.0
 13
1420.604149610528
 23
-378.4980630352921
 33
0.0
  0
SOLID
  5
7A82
330
7881
100
AcDbEntity
  8
标注
100
AcDbTrace
 10
1402.254187610588
 20
-378.3897297019588
 30
0.0
 11
1402.254187610588
 21
-378.6063963686254
 31
0.0
 12
1401.604187610588
 22
-378.4980630352921
 32
0.0
 13
1401.604187610588
 23
-378.4980630352921
 33
0.0
  0
MTEXT
  5
7A83
330
7881
100
AcDbEntity
  8
标注
100
AcDbMText
 10
1411.104168610558
 20
-378.4980630352921
 30
0.0
 40
0.65
 41
0.0
 71
     5
 72
     1
  1
\A1;19"
 73
     1
 44
1.0
  0
POINT
  5
7A84
330
7881
100
AcDbEntity
  8
DEFPOINTS
 62
     0
100
AcDbPoint
 10
1420.604149610528
 20
-375.0449347418888
 30
0.0
  0
POINT
  5
7A85
330
7881
100
AcDbEntity
  8
DEFPOINTS
 62
     0
100
AcDbPoint
 10
1401.604187610588
 20
-375.0449347418888
 30
0.0
  0
POINT
  5
7A86
330
7881
100
AcDbEntity
  8
DEFPOINTS
 62
     0
100
AcDbPoint
 10
1401.604187610588
 20
-378.4980630352921
 30
0.0
  0
ENDBLK
  5
7883
330
7881
100
AcDbEntity
  8
0
100
AcDbBlockEnd
  0
BLOCK
  5
788F
330
788E
100
AcDbEntity
  8
0
100
AcDbBlockBegin
  2
*D60
 70
     1
 10
0.0
 20
0.0
 30
0.0
  3
*D60
  1

  0
LINE
  5
7A87
330
788E
100
AcDbEntity
  8
标注
  6
Continuous
370
    -2
100
AcDbLine
 10
1400.604189610608
 20
-375.9249347418888
 30
0.0
 11
1400.604189610608
 21
-378.8180630352921
 31
0.0
  0
LINE
  5
7A88
330
788E
100
AcDbEntity
  8
标注
  6
Continuous
370
    -2
100
AcDbLine
 10
1390.604209610625
 20
-375.9249347418888
 30
0.0
 11
1390.604209610625
 21
-378.8180630352921
 31
0.0
  0
LINE
  5
7A89
330
788E
100
AcDbEntity
  8
标注
  6
Continuous
370
    -2
100
AcDbLine
 10
1399.954189610608
 20
-378.4980630352921
 30
0.0
 11
1396.499663457819
 21
-378.4980630352921
 31
0.0
  0
LINE
  5
7A8A
330
788E
100
AcDbEntity
  8
标注
  6
Continuous
370
    -2
100
AcDbLine
 10
1391.254209610625
 20
-378.4980630352921
 30
0.0
 11
1394.708735763413
 21
-378.4980630352921
 31
0.0
  0
SOLID
  5
7A8B
330
788E
100
AcDbEntity
  8
标注
100
AcDbTrace
 10
1399.954189610608
 20
-378.3897297019588
 30
0.0
 11
1399.954189610608
 21
-378.6063963686254
 31
0.0
 12
1400.604189610608
 22
-378.4980630352921
 32
0.0
 13
1400.604189610608
 23
-378.4980630352921
 33
0.0
  0
SOLID
  5
7A8C
330
788E
100
AcDbEntity
  8
标注
100
AcDbTrace
 10
1391.254209610625
 20
-378.3897297019588
 30
0.0
 11
1391.254209610625
 21
-378.6063963686254
 31
0.0
 12
1390.604209610625
 22
-378.4980630352921
 32
0.0
 13
1390.604209610625
 23
-378.4980630352921
 33
0.0
  0
MTEXT
  5
7A8D
330
788E
100
AcDbEntity
  8
标注
100
AcDbMText
 10
1395.604199610616
 20
-378.4980630352921
 30
0.0
 40
0.65
 41
0.0
 71
     5
 72
     1
  1
\A1;10"
 73
     1
 44
1.0
  0
POINT
  5
7A8E
330
788E
100
AcDbEntity
  8
DEFPOINTS
 62
     0
100
AcDbPoint
 10
1400.604189610608
 20
-375.0449347418888
 30
0.0
  0
POINT
  5
7A8F
330
788E
100
AcDbEntity
  8
DEFPOINTS
 62
     0
100
AcDbPoint
 10
1390.604209610625
 20
-375.0449347418888
 30
0.0
  0
POINT
  5
7A90
330
788E
100
AcDbEntity
  8
DEFPOINTS
 62
     0
100
AcDbPoint
 10
1390.604209610625
 20
-378.4980630352921
 30
0.0
  0
ENDBLK
  5
7890
330
788E
100
AcDbEntity
  8
0
100
AcDbBlockEnd
  0
BLOCK
  5
789C
330
789B
100
AcDbEntity
  8
0
100
AcDbBlockBegin
  2
*D61
 70
     1
 10
0.0
 20
0.0
 30
0.0
  3
*D61
  1

  0
LINE
  5
7A91
330
789B
100
AcDbEntity
  8
标注
  6
Continuous
370
    -2
100
AcDbLine
 10
1421.604147610524
 20
-376.4710585659981
 30
0.0
 11
1421.604147610524
 21
-380.6501579976131
 31
0.0
  0
LINE
  5
7A92
330
789B
100
AcDbEntity
  8
标注
  6
Continuous
370
    -2
100
AcDbLine
 10
1389.604211610645
 20
-376.4710585659981
 30
0.0
 11
1389.604211610645
 21
-380.6501579976131
 31
0.0
  0
LINE
  5
7A93
330
789B
100
AcDbEntity
  8
标注
  6
Continuous
370
    -2
100
AcDbLine
 10
1420.954147610524
 20
-380.3301579976131
 30
0.0
 11
1406.530015217678
 21
-380.3301579976131
 31
0.0
  0
LINE
  5
7A94
330
789B
100
AcDbEntity
  8
标注
  6
Continuous
370
    -2
100
AcDbLine
 10
1390.254211610645
 20
-380.3301579976131
 30
0.0
 11
1404.67834400349
 21
-380.3301579976131
 31
0.0
  0
SOLID
  5
7A95
330
789B
100
AcDbEntity
  8
标注
100
AcDbTrace
 10
1420.954147610524
 20
-380.2218246642797
 30
0.0
 11
1420.954147610524
 21
-380.4384913309464
 31
0.0
 12
1421.604147610524
 22
-380.3301579976131
 32
0.0
 13
1421.604147610524
 23
-380.3301579976131
 33
0.0
  0
SOLID
  5
7A96
330
789B
100
AcDbEntity
  8
标注
100
AcDbTrace
 10
1390.254211610645
 20
-380.2218246642797
 30
0.0
 11
1390.254211610645
 21
-380.4384913309464
 31
0.0
 12
1389.604211610645
 22
-380.3301579976131
 32
0.0
 13
1389.604211610645
 23
-380.3301579976131
 33
0.0
  0
MTEXT
  5
7A97
330
789B
100
AcDbEntity
  8
标注
100
AcDbMText
 10
1405.604179610584
 20
-380.3301579976131
 30
0.0
 40
0.65
 41
0.0
 71
     5
 72
     1
  1
\A1;32"
 73
     1
 44
1.0
  0
POINT
  5
7A98
330
789B
100
AcDbEntity
  8
DEFPOINTS
 62
     0
100
AcDbPoint
 10
1421.604147610524
 20
-375.5910585659981
 30
0.0
  0
POINT
  5
7A99
330
789B
100
AcDbEntity
  8
DEFPOINTS
 62
     0
100
AcDbPoint
 10
1389.604211610645
 20
-375.5910585659981
 30
0.0
  0
POINT
  5
7A9A
330
789B
100
AcDbEntity
  8
DEFPOINTS
 62
     0
100
AcDbPoint
 10
1389.604211610645
 20
-380.3301579976131
 30
0.0
  0
ENDBLK
  5
789D
330
789B
100
AcDbEntity
  8
0
100
AcDbBlockEnd
  0
BLOCK
  5
78A9
330
78A8
100
AcDbEntity
  8
0
100
AcDbBlockBegin
  2
*D62
 70
     1
 10
0.0
 20
0.0
 30
0.0
  3
*D62
  1

  0
LINE
  5
7A9B
330
78A8
100
AcDbEntity
  8
标注
  6
Continuous
370
    -2
100
AcDbLine
 10
1420.68288961051
 20
-406.5740272489946
 30
0.0
 11
1420.68288961051
 21
-409.2344010626476
 31
0.0
  0
LINE
  5
7A9C
330
78A8
100
AcDbEntity
  8
标注
  6
Continuous
370
    -2
100
AcDbLine
 10
1390.525469610628
 20
-406.5740272489946
 30
0.0
 11
1390.525469610628
 21
-409.2344010626476
 31
0.0
  0
LINE
  5
7A9D
330
78A8
100
AcDbEntity
  8
标注
  6
Continuous
370
    -2
100
AcDbLine
 10
1420.03288961051
 20
-408.9144010626476
 30
0.0
 11
1407.287313989833
 21
-408.9144010626476
 31
0.0
  0
LINE
  5
7A9E
330
78A8
100
AcDbEntity
  8
标注
  6
Continuous
370
    -2
100
AcDbLine
 10
1391.175469610628
 20
-408.9144010626476
 30
0.0
 11
1403.921045231306
 21
-408.9144010626476
 31
0.0
  0
SOLID
  5
7A9F
330
78A8
100
AcDbEntity
  8
标注
100
AcDbTrace
 10
1420.03288961051
 20
-408.8060677293142
 30
0.0
 11
1420.03288961051
 21
-409.0227343959809
 31
0.0
 12
1420.68288961051
 22
-408.9144010626476
 32
0.0
 13
1420.68288961051
 23
-408.9144010626476
 33
0.0
  0
SOLID
  5
7AA0
330
78A8
100
AcDbEntity
  8
标注
100
AcDbTrace
 10
1391.175469610628
 20
-408.8060677293142
 30
0.0
 11
1391.175469610628
 21
-409.0227343959809
 31
0.0
 12
1390.525469610628
 22
-408.9144010626476
 32
0.0
 13
1390.525469610628
 23
-408.9144010626476
 33
0.0
  0
MTEXT
  5
7AA1
330
78A8
100
AcDbEntity
  8
标注
100
AcDbMText
 10
1405.60417961057
 20
-408.9144010626476
 30
0.0
 40
0.65
 41
0.0
 71
     5
 72
     1
  1
\A1;30 1/8"
 73
     1
 44
1.0
  0
POINT
  5
7AA2
330
78A8
100
AcDbEntity
  8
DEFPOINTS
 62
     0
100
AcDbPoint
 10
1420.68288961051
 20
-405.6940272489947
 30
0.0
  0
POINT
  5
7AA3
330
78A8
100
AcDbEntity
  8
DEFPOINTS
 62
     0
100
AcDbPoint
 10
1390.525469610628
 20
-405.6940272489947
 30
0.0
  0
POINT
  5
7AA4
330
78A8
100
AcDbEntity
  8
DEFPOINTS
 62
     0
100
AcDbPoint
 10
1390.525469610628
 20
-408.9144010626476
 30
0.0
  0
ENDBLK
  5
78AA
330
78A8
100
AcDbEntity
  8
0
100
AcDbBlockEnd
  0
BLOCK
  5
78B6
330
78B5
100
AcDbEntity
  8
0
100
AcDbBlockBegin
  2
*D63
 70
     1
 10
0.0
 20
0.0
 30
0.0
  3
*D63
  1

  0
LINE
  5
7936
330
78B5
100
AcDbEntity
  8
标注
  6
Continuous
370
    -2
100
AcDbLine
 10
1140.70484862993
 20
110.340794361361
 30
0.0
 11
1138.567527212416
 21
110.340794361361
 31
0.0
  0
LINE
  5
7937
330
78B5
100
AcDbEntity
  8
标注
  6
Continuous
370
    -2
100
AcDbLine
 10
1140.70484862993
 20
126.4982423613614
 30
0.0
 11
1138.567527212416
 21
126.4982423613614
 31
0.0
  0
LINE
  5
7938
330
78B5
100
AcDbEntity
  8
标注
  6
Continuous
370
    -2
100
AcDbLine
 10
1138.887527212416
 20
110.990794361361
 30
0.0
 11
1138.887527212416
 21
116.7667557419888
 31
0.0
  0
LINE
  5
7939
330
78B5
100
AcDbEntity
  8
标注
  6
Continuous
370
    -2
100
AcDbLine
 10
1138.887527212416
 20
125.8482423613614
 30
0.0
 11
1138.887527212416
 21
120.0722809807337
 31
0.0
  0
SOLID
  5
793A
330
78B5
100
AcDbEntity
  8
标注
100
AcDbTrace
 10
1138.779193879082
 20
110.990794361361
 30
0.0
 11
1138.995860545749
 21
110.990794361361
 31
0.0
 12
1138.887527212416
 22
110.340794361361
 32
0.0
 13
1138.887527212416
 23
110.340794361361
 33
0.0
  0
SOLID
  5
793B
330
78B5
100
AcDbEntity
  8
标注
100
AcDbTrace
 10
1138.779193879082
 20
125.8482423613614
 30
0.0
 11
1138.995860545749
 21
125.8482423613614
 31
0.0
 12
1138.887527212416
 22
126.4982423613614
 32
0.0
 13
1138.887527212416
 23
126.4982423613614
 33
0.0
  0
MTEXT
  5
793C
330
78B5
100
AcDbEntity
  8
标注
100
AcDbMText
 10
1138.887527212416
 20
118.4195183613614
 30
0.0
 40
0.65
 41
0.0
 71
     5
 72
     1
  1
\A1;16 1/8"
 11
0.0000000000000001
 21
1.0
 31
0.0
 73
     1
 44
1.0
  0
POINT
  5
793D
330
78B5
100
AcDbEntity
  8
DEFPOINTS
 62
     0
100
AcDbPoint
 10
1141.584848629931
 20
110.340794361361
 30
0.0
  0
POINT
  5
793E
330
78B5
100
AcDbEntity
  8
DEFPOINTS
 62
     0
100
AcDbPoint
 10
1141.584848629931
 20
126.4982423613614
 30
0.0
  0
POINT
  5
793F
330
78B5
100
AcDbEntity
  8
DEFPOINTS
 62
     0
100
AcDbPoint
 10
1138.887527212416
 20
126.4982423613614
 30
0.0
  0
ENDBLK
  5
78B7
330
78B5
100
AcDbEntity
  8
0
100
AcDbBlockEnd
  0
BLOCK
  5
78C3
330
78C2
100
AcDbEntity
  8
0
100
AcDbBlockBegin
  2
*D64
 70
     1
 10
0.0
 20
0.0
 30
0.0
  3
*D64
  1

  0
LINE
  5
7AA5
330
78C2
100
AcDbEntity
  8
标注
  6
Continuous
370
    -2
100
AcDbLine
 10
1388.724211610645
 20
-339.6857849648415
 30
0.0
 11
1387.32476208271
 21
-339.6857849648415
 31
0.0
  0
LINE
  5
7AA6
330
78C2
100
AcDbEntity
  8
标注
  6
Continuous
370
    -2
100
AcDbLine
 10
1388.724211610645
 20
-347.6857849648093
 30
0.0
 11
1387.32476208271
 21
-347.6857849648093
 31
0.0
  0
LINE
  5
7AA7
330
78C2
100
AcDbEntity
  8
标注
  6
Continuous
370
    -2
100
AcDbLine
 10
1387.64476208271
 20
-340.3357849648415
 30
0.0
 11
1387.64476208271
 21
-343.0117911039797
 31
0.0
  0
LINE
  5
7AA8
330
78C2
100
AcDbEntity
  8
标注
  6
Continuous
370
    -2
100
AcDbLine
 10
1387.64476208271
 20
-347.0357849648094
 30
0.0
 11
1387.64476208271
 21
-344.3597788256713
 31
0.0
  0
SOLID
  5
7AA9
330
78C2
100
AcDbEntity
  8
标注
100
AcDbTrace
 10
1387.536428749377
 20
-340.3357849648415
 30
0.0
 11
1387.753095416043
 21
-340.3357849648415
 31
0.0
 12
1387.64476208271
 22
-339.6857849648415
 32
0.0
 13
1387.64476208271
 23
-339.6857849648415
 33
0.0
  0
SOLID
  5
7AAA
330
78C2
100
AcDbEntity
  8
标注
100
AcDbTrace
 10
1387.536428749377
 20
-347.0357849648094
 30
0.0
 11
1387.753095416043
 21
-347.0357849648094
 31
0.0
 12
1387.64476208271
 22
-347.6857849648093
 32
0.0
 13
1387.64476208271
 23
-347.6857849648093
 33
0.0
  0
MTEXT
  5
7AAB
330
78C2
100
AcDbEntity
  8
标注
100
AcDbMText
 10
1387.64476208271
 20
-343.6857849648252
 30
0.0
 40
0.65
 41
0.0
 71
     5
 72
     1
  1
\A1;8"
 11
0.0000000000000001
 21
1.0
 31
0.0
 73
     1
 44
1.0
  0
POINT
  5
7AAC
330
78C2
100
AcDbEntity
  8
DEFPOINTS
 62
     0
100
AcDbPoint
 10
1389.604211610645
 20
-339.6857849648415
 30
0.0
  0
POINT
  5
7AAD
330
78C2
100
AcDbEntity
  8
DEFPOINTS
 62
     0
100
AcDbPoint
 10
1389.604211610645
 20
-347.6857849648093
 30
0.0
  0
POINT
  5
7AAE
330
78C2
100
AcDbEntity
  8
DEFPOINTS
 62
     0
100
AcDbPoint
 10
1387.64476208271
 20
-347.6857849648093
 30
0.0
  0
ENDBLK
  5
78C4
330
78C2
100
AcDbEntity
  8
0
100
AcDbBlockEnd
  0
BLOCK
  5
78D0
330
78CF
100
AcDbEntity
  8
0
100
AcDbBlockBegin
  2
*D65
 70
     1
 10
0.0
 20
0.0
 30
0.0
  3
*D65
  1

  0
LINE
  5
7AAF
330
78CF
100
AcDbEntity
  8
标注
  6
Continuous
370
    -2
100
AcDbLine
 10
1422.484147610524
 20
-339.6857849648415
 30
0.0
 11
1423.872075784404
 21
-339.6857849648415
 31
0.0
  0
LINE
  5
7AB0
330
78CF
100
AcDbEntity
  8
标注
  6
Continuous
370
    -2
100
AcDbLine
 10
1422.484147610524
 20
-348.6857849648054
 30
0.0
 11
1423.872075784404
 21
-348.6857849648054
 31
0.0
  0
LINE
  5
7AB1
330
78CF
100
AcDbEntity
  8
标注
  6
Continuous
370
    -2
100
AcDbLine
 10
1423.552075784404
 20
-340.3357849648415
 30
0.0
 11
1423.552075784404
 21
-343.5122344873337
 31
0.0
  0
LINE
  5
7AB2
330
78CF
100
AcDbEntity
  8
标注
  6
Continuous
370
    -2
100
AcDbLine
 10
1423.552075784404
 20
-348.0357849648054
 30
0.0
 11
1423.552075784404
 21
-344.8593354423132
 31
0.0
  0
SOLID
  5
7AB3
330
78CF
100
AcDbEntity
  8
标注
100
AcDbTrace
 10
1423.443742451071
 20
-340.3357849648415
 30
0.0
 11
1423.660409117738
 21
-340.3357849648415
 31
0.0
 12
1423.552075784404
 22
-339.6857849648415
 32
0.0
 13
1423.552075784404
 23
-339.6857849648415
 33
0.0
  0
SOLID
  5
7AB4
330
78CF
100
AcDbEntity
  8
标注
100
AcDbTrace
 10
1423.443742451071
 20
-348.0357849648054
 30
0.0
 11
1423.660409117738
 21
-348.0357849648054
 31
0.0
 12
1423.552075784404
 22
-348.6857849648054
 32
0.0
 13
1423.552075784404
 23
-348.6857849648054
 33
0.0
  0
MTEXT
  5
7AB5
330
78CF
100
AcDbEntity
  8
标注
100
AcDbMText
 10
1423.552075784404
 20
-344.1857849648233
 30
0.0
 40
0.65
 41
0.0
 71
     5
 72
     1
  1
\A1;9"
 11
0.0000000000000001
 21
1.0
 31
0.0
 73
     1
 44
1.0
  0
POINT
  5
7AB6
330
78CF
100
AcDbEntity
  8
DEFPOINTS
 62
     0
100
AcDbPoint
 10
1421.604147610524
 20
-339.6857849648415
 30
0.0
  0
POINT
  5
7AB7
330
78CF
100
AcDbEntity
  8
DEFPOINTS
 62
     0
100
AcDbPoint
 10
1421.604147610524
 20
-348.6857849648054
 30
0.0
  0
POINT
  5
7AB8
330
78CF
100
AcDbEntity
  8
DEFPOINTS
 62
     0
100
AcDbPoint
 10
1423.552075784404
 20
-348.6857849648054
 30
0.0
  0
ENDBLK
  5
78D1
330
78CF
100
AcDbEntity
  8
0
100
AcDbBlockEnd
  0
BLOCK
  5
78DD
330
78DC
100
AcDbEntity
  8
0
100
AcDbBlockBegin
  2
*D66
 70
     1
 10
0.0
 20
0.0
 30
0.0
  3
*D66
  1

  0
LINE
  5
7AB9
330
78DC
100
AcDbEntity
  8
标注
  6
Continuous
370
    -2
100
AcDbLine
 10
1420.840867240063
 20
-406.6227065079264
 30
0.0
 11
1421.205939278833
 21
-407.1605005265879
 31
0.0
  0
MTEXT
  5
7ABA
330
78DC
100
AcDbEntity
  8
标注
100
AcDbMText
 10
1419.796670011185
 20
-404.5924858442536
 30
0.0
 40
0.65
 41
0.0
 71
     5
 72
     1
  1
\A1;R1/2"
 11
0.5616492904155025
 21
-0.8273754133256334
 31
0.0
 73
     1
 44
1.0
  0
LINE
  5
7ABB
330
78DC
100
AcDbEntity
  8
标注
  6
Continuous
370
    -2
100
AcDbLine
 10
1420.210449610529
 20
-405.6940272489943
 30
0.0
 11
1420.475795201292
 21
-406.0849124892645
 31
0.0
  0
SOLID
  5
7ABC
330
78DC
100
AcDbEntity
  8
标注
100
AcDbTrace
 10
1420.930499576506
 20
-406.5618611681315
 30
0.0
 11
1420.751234903619
 21
-406.6835518477214
 31
0.0
 12
1420.475795201292
 22
-406.0849124892645
 32
0.0
 13
1420.475795201292
 23
-406.0849124892645
 33
0.0
  0
POINT
  5
7ABD
330
78DC
100
AcDbEntity
  8
DEFPOINTS
 62
     0
100
AcDbPoint
 10
1420.475795201292
 20
-406.0849124892645
 30
0.0
  0
POINT
  5
7ABE
330
78DC
100
AcDbEntity
  8
DEFPOINTS
 62
     0
100
AcDbPoint
 10
1420.210449610529
 20
-405.6940272489943
 30
0.0
  0
ENDBLK
  5
78DE
330
78DC
100
AcDbEntity
  8
0
100
AcDbBlockEnd
  0
BLOCK
  5
795D
330
795C
100
AcDbEntity
  8
0
100
AcDbBlockBegin
  2
*D67
 70
     1
 10
0.0
 20
0.0
 30
0.0
  3
*D67
  1

  0
LINE
  5
7AC5
330
795C
100
AcDbEntity
  8
标注
  6
Continuous
370
    -2
100
AcDbLine
 10
1421.09044961053
 20
-406.1664672489497
 30
0.0
 11
1423.227771028004
 21
-406.1664672489497
 31
0.0
  0
LINE
  5
7AC6
330
795C
100
AcDbEntity
  8
标注
  6
Continuous
370
    -2
100
AcDbLine
 10
1421.090449610501
 20
-390.009019249014
 30
0.0
 11
1423.227771028004
 21
-390.009019249014
 31
0.0
  0
LINE
  5
7AC7
330
795C
100
AcDbEntity
  8
标注
  6
Continuous
370
    -2
100
AcDbLine
 10
1422.907771028004
 20
-405.5164672489496
 30
0.0
 11
1422.907771028004
 21
-399.7405058683543
 31
0.0
  0
LINE
  5
7AC8
330
795C
100
AcDbEntity
  8
标注
  6
Continuous
370
    -2
100
AcDbLine
 10
1422.907771028004
 20
-390.659019249014
 30
0.0
 11
1422.907771028004
 21
-396.4349806296094
 31
0.0
  0
SOLID
  5
7AC9
330
795C
100
AcDbEntity
  8
标注
100
AcDbTrace
 10
1422.799437694671
 20
-405.5164672489496
 30
0.0
 11
1423.016104361338
 21
-405.5164672489496
 31
0.0
 12
1422.907771028004
 22
-406.1664672489497
 32
0.0
 13
1422.907771028004
 23
-406.1664672489497
 33
0.0
  0
SOLID
  5
7ACA
330
795C
100
AcDbEntity
  8
标注
100
AcDbTrace
 10
1422.799437694671
 20
-390.659019249014
 30
0.0
 11
1423.016104361338
 21
-390.659019249014
 31
0.0
 12
1422.907771028004
 22
-390.009019249014
 32
0.0
 13
1422.907771028004
 23
-390.009019249014
 33
0.0
  0
MTEXT
  5
7ACB
330
795C
100
AcDbEntity
  8
标注
100
AcDbMText
 10
1422.907771028004
 20
-398.0877432489816
 30
0.0
 40
0.65
 41
0.0
 71
     5
 72
     1
  1
\A1;16 1/8"
 11
0.0000000000000001
 21
1.0
 31
0.0
 73
     1
 44
1.0
  0
POINT
  5
7ACC
330
795C
100
AcDbEntity
  8
DEFPOINTS
 62
     0
100
AcDbPoint
 10
1420.210449610529
 20
-406.1664672489497
 30
0.0
  0
POINT
  5
7ACD
330
795C
100
AcDbEntity
  8
DEFPOINTS
 62
     0
100
AcDbPoint
 10
1420.2104496105
 20
-390.009019249014
 30
0.0
  0
POINT
  5
7ACE
330
795C
100
AcDbEntity
  8
DEFPOINTS
 62
     0
100
AcDbPoint
 10
1422.907771028004
 20
-390.009019249014
 30
0.0
  0
ENDBLK
  5
795E
330
795C
100
AcDbEntity
  8
0
100
AcDbBlockEnd
  0
BLOCK
  5
7976
330
7975
100
AcDbEntity
  8
0
100
AcDbBlockBegin
  2
*D68
 70
     1
 10
0.0
 20
0.0
 30
0.0
  3
*D68
  1

  0
LINE
  5
7ACF
330
7975
100
AcDbEntity
  8
标注
  6
Continuous
370
    -2
100
AcDbLine
 10
1421.090449610501
 20
-375.4386347418873
 30
0.0
 11
1424.032910987005
 21
-375.4386347418873
 31
0.0
  0
LINE
  5
7AD0
330
7975
100
AcDbEntity
  8
标注
  6
Continuous
370
    -2
100
AcDbLine
 10
1421.090449610501
 20
-359.4386667419631
 30
0.0
 11
1424.032910987005
 21
-359.4386667419631
 31
0.0
  0
LINE
  5
7AD1
330
7975
100
AcDbEntity
  8
标注
  6
Continuous
370
    -2
100
AcDbLine
 10
1423.712910987005
 20
-374.7886347418873
 30
0.0
 11
1423.712910987005
 21
-368.3341145891285
 31
0.0
  0
LINE
  5
7AD2
330
7975
100
AcDbEntity
  8
标注
  6
Continuous
370
    -2
100
AcDbLine
 10
1423.712910987005
 20
-360.0886667419631
 30
0.0
 11
1423.712910987005
 21
-366.5431868947219
 31
0.0
  0
SOLID
  5
7AD3
330
7975
100
AcDbEntity
  8
标注
100
AcDbTrace
 10
1423.604577653672
 20
-374.7886347418873
 30
0.0
 11
1423.821244320339
 21
-374.7886347418873
 31
0.0
 12
1423.712910987005
 22
-375.4386347418873
 32
0.0
 13
1423.712910987005
 23
-375.4386347418873
 33
0.0
  0
SOLID
  5
7AD4
330
7975
100
AcDbEntity
  8
标注
100
AcDbTrace
 10
1423.604577653672
 20
-360.0886667419631
 30
0.0
 11
1423.821244320339
 21
-360.0886667419631
 31
0.0
 12
1423.712910987005
 22
-359.4386667419631
 32
0.0
 13
1423.712910987005
 23
-359.4386667419631
 33
0.0
  0
MTEXT
  5
7AD5
330
7975
100
AcDbEntity
  8
标注
100
AcDbMText
 10
1423.712910987005
 20
-367.438650741925
 30
0.0
 40
0.65
 41
0.0
 71
     5
 72
     1
  1
\A1;16"
 11
0.0000000000000001
 21
1.0
 31
0.0
 73
     1
 44
1.0
  0
POINT
  5
7AD6
330
7975
100
AcDbEntity
  8
DEFPOINTS
 62
     0
100
AcDbPoint
 10
1420.2104496105
 20
-375.4386347418873
 30
0.0
  0
POINT
  5
7AD7
330
7975
100
AcDbEntity
  8
DEFPOINTS
 62
     0
100
AcDbPoint
 10
1420.2104496105
 20
-359.4386667419631
 30
0.0
  0
POINT
  5
7AD8
330
7975
100
AcDbEntity
  8
DEFPOINTS
 62
     0
100
AcDbPoint
 10
1423.712910987005
 20
-359.4386667419631
 30
0.0
  0
ENDBLK
  5
7977
330
7975
100
AcDbEntity
  8
0
100
AcDbBlockEnd
  0
BLOCK
  5
7983
330
7982
100
AcDbEntity
  8
0
100
AcDbBlockBegin
  2
*D69
 70
     1
 10
0.0
 20
0.0
 30
0.0
  3
*D69
  1

  0
LINE
  5
7AD9
330
7982
100
AcDbEntity
  8
标注
  6
Continuous
370
    -2
100
AcDbLine
 10
1421.484149610515
 20
-376.4386327418832
 30
0.0
 11
1425.890854465809
 21
-376.4386327418832
 31
0.0
  0
LINE
  5
7ADA
330
7982
100
AcDbEntity
  8
标注
  6
Continuous
370
    -2
100
AcDbLine
 10
1421.484149610515
 20
-358.4386687419673
 30
0.0
 11
1425.890854465809
 21
-358.4386687419673
 31
0.0
  0
LINE
  5
7ADB
330
7982
100
AcDbEntity
  8
标注
  6
Continuous
370
    -2
100
AcDbLine
 10
1425.570854465809
 20
-375.7886327418832
 30
0.0
 11
1425.570854465809
 21
-368.3341145891285
 31
0.0
  0
LINE
  5
7ADC
330
7982
100
AcDbEntity
  8
标注
  6
Continuous
370
    -2
100
AcDbLine
 10
1425.570854465809
 20
-359.0886687419673
 30
0.0
 11
1425.570854465809
 21
-366.543186894722
 31
0.0
  0
SOLID
  5
7ADD
330
7982
100
AcDbEntity
  8
标注
100
AcDbTrace
 10
1425.462521132476
 20
-375.7886327418832
 30
0.0
 11
1425.679187799142
 21
-375.7886327418832
 31
0.0
 12
1425.570854465809
 22
-376.4386327418832
 32
0.0
 13
1425.570854465809
 23
-376.4386327418832
 33
0.0
  0
SOLID
  5
7ADE
330
7982
100
AcDbEntity
  8
标注
100
AcDbTrace
 10
1425.462521132476
 20
-359.0886687419673
 30
0.0
 11
1425.679187799142
 21
-359.0886687419673
 31
0.0
 12
1425.570854465809
 22
-358.4386687419673
 32
0.0
 13
1425.570854465809
 23
-358.4386687419673
 33
0.0
  0
MTEXT
  5
7ADF
330
7982
100
AcDbEntity
  8
标注
100
AcDbMText
 10
1425.570854465809
 20
-367.438650741925
 30
0.0
 40
0.65
 41
0.0
 71
     5
 72
     1
  1
\A1;18"
 11
0.0000000000000001
 21
1.0
 31
0.0
 73
     1
 44
1.0
  0
POINT
  5
7AE0
330
7982
100
AcDbEntity
  8
DEFPOINTS
 62
     0
100
AcDbPoint
 10
1420.604149610515
 20
-376.4386327418832
 30
0.0
  0
POINT
  5
7AE1
330
7982
100
AcDbEntity
  8
DEFPOINTS
 62
     0
100
AcDbPoint
 10
1420.604149610515
 20
-358.4386687419673
 30
0.0
  0
POINT
  5
7AE2
330
7982
100
AcDbEntity
  8
DEFPOINTS
 62
     0
100
AcDbPoint
 10
1425.570854465809
 20
-358.4386687419673
 30
0.0
  0
ENDBLK
  5
7984
330
7982
100
AcDbEntity
  8
0
100
AcDbBlockEnd
  0
ENDSEC
  0
SECTION
  2
ENTITIES
  0
LINE
  5
77AD
330
5F6E
100
AcDbEntity
  8
0
100
AcDbLine
 10
1390.451785786529
 20
-376.4386327418832
 30
0.0
 11
1420.75657343461
 21
-376.4386327418832
 31
0.0
  0
ARC
  5
77AE
330
5F6E
100
AcDbEntity
  8
0
100
AcDbCircle
 10
1420.75657343461
 20
-376.3598927418863
 30
0.0
 40
0.0787399999996851
100
AcDbArc
 50
270.0
 51
315.0
  0
LINE
  5
77AF
330
5F6E
100
AcDbEntity
  8
0
100
AcDbLine
 10
1421.58108519845
 20
-375.6467361539502
 30
0.0
 11
1420.812251022562
 21
-376.4155703298383
 31
0.0
  0
LINE
  5
77B0
330
5F6E
100
AcDbEntity
  8
0
100
AcDbLine
 10
1401.997887610602
 20
-375.4386347419024
 30
0.0
 11
1420.210449610529
 21
-375.4386347419024
 31
0.0
  0
LINE
  5
77B1
330
5F6E
100
AcDbEntity
  8
0
100
AcDbLine
 10
1420.210449610529
 20
-359.4386667419481
 30
0.0
 11
1401.997887610602
 21
-359.4386667419481
 31
0.0
  0
ARC
  5
77B2
330
5F6E
100
AcDbEntity
  8
0
100
AcDbCircle
 10
1420.210449610529
 20
-359.8323667419616
 30
0.0
 40
0.3936999999984252
100
AcDbArc
 50
0.0
 51
90.0
  0
LINE
  5
77B3
330
5F6E
100
AcDbEntity
  8
0
100
AcDbLine
 10
1401.486077610607
 20
-339.6857849648415
 30
0.0
 11
1420.722259610524
 21
-339.6857849648415
 31
0.0
  0
LINE
  5
77B4
330
5F6E
100
AcDbEntity
  8
0
 48
5.0
100
AcDbLine
 10
1420.604641735507
 20
-367.550618549313
 30
0.0
 11
1420.604641735507
 21
-367.550618549313
 31
0.0
  0
REGION
  5
77B5
330
5F6E
100
AcDbEntity
  8
0
100
AcDbModelerGeometry
 70
     1
  1
mogoo nm m o          
  1
ni ^ *+0;:,4 ^ *+0\^ [ ng ^ LR nmqoqoqjgmm QK o  
  1
mjqlffffffffffffff fqfffffffffffffffj:rooh n:rono 
  1
>,27:>;:- {rn rn _nm mnmqoqoqjgmm |
  1
=0;& {rn rn {rn {m {rn {rn |
  1
3*2/ {rn rn {rn {rn {l {n |
  1
,7:33 {rn rn {rn {rn {rn {k {rn {m |
  1
9><: {rn rn {rn {rn {j {l {rn {i 90-(>-; ;0*=3: 0*+ |
  1
300/ {rn rn {rn {rn {h {k |
  1
/3>1:r,*-9><: {rn rn {rn nknnqnokniginojjni rlikqniloihnljimggi o o o n oqolflifffffffgkmjnh o o 90-(>-;@) V V V V |
  1
<0:;8: {rn rn {rn {h {h {rn {g 90-(>-; {j {rn |
  1
:;8: {rn rn {rn {f o {f iqmglngjlohnhfjgim {h {no 90-(>-; _h *1410(1 |
  1
):-+:' {rn rn {rn {g {nn |
  1
:336/,:r<*-): {rn rn {rn nknnqnokniginojjni rlikqniloihnljimggi o o o n mqmglkjffffffogiim o o n V V |
  1
/061+ {rn rn {rn nknlqlghimginojkgl rlikqniloihnljimggi o |
  0
CIRCLE
  5
77B6
330
5F6E
100
AcDbEntity
  8
细实线
100
AcDbCircle
 10
1411.104168610551
 20
-364.1630671356289
 30
0.0
 40
2.165349999991338
  0
CIRCLE
  5
77B7
330
5F6E
100
AcDbEntity
  8
0
100
AcDbCircle
 10
1411.104168610551
 20
-364.1630671356289
 30
0.0
 40
1.791334999992834
  0
LINE
  5
77B8
330
5F6E
100
AcDbEntity
  8
0
 48
5.0
100
AcDbLine
 10
1420.75657343461
 20
-358.4386687419673
 30
0.0
 11
1390.451785786529
 21
-358.4386687419673
 31
0.0
  0
ARC
  5
77B9
330
5F6E
100
AcDbEntity
  8
0
 48
5.0
100
AcDbCircle
 10
1420.75657343461
 20
-358.5174087419641
 30
0.0
 40
0.0787399999996851
100
AcDbArc
 50
45.0
 51
90.0
  0
ARC
  5
77BA
330
5F6E
100
AcDbEntity
  8
0
 48
5.0
100
AcDbCircle
 10
1390.451785786529
 20
-358.5174087419641
 30
0.0
 40
0.0787399999996851
100
AcDbArc
 50
90.0
 51
135.0
  0
LINE
  5
77BB
330
5F6E
100
AcDbEntity
  8
0
 48
5.0
100
AcDbLine
 10
1421.58108519845
 20
-359.2305653299003
 30
0.0
 11
1420.812251022562
 21
-358.4617311540122
 31
0.0
  0
LINE
  5
77BC
330
5F6E
100
AcDbEntity
  8
0
100
AcDbLine
 10
1420.210449610529
 20
-360.0292171356616
 30
0.0
 11
1413.18341558291
 21
-363.219180702021
 31
0.0
  0
LINE
  5
77BD
330
5F6E
100
AcDbEntity
  8
0
100
AcDbLine
 10
1401.997887610602
 20
-375.2417851355888
 30
0.0
 11
1409.654205133552
 21
-365.9270953346387
 31
0.0
  0
LINE
  5
77BE
330
5F6E
100
AcDbEntity
  8
0
100
AcDbLine
 10
1409.024921638221
 20
-363.219180702021
 30
0.0
 11
1401.997887610602
 21
-360.0292171356616
 31
0.0
  0
LINE
  5
77BF
330
5F6E
100
AcDbEntity
  8
0
100
AcDbLine
 10
1412.554132087549
 20
-365.9270953346387
 30
0.0
 11
1420.210449610529
 21
-375.2417851355888
 31
0.0
  0
LINE
  5
77C0
330
5F6E
100
AcDbEntity
  8
0
100
AcDbLine
 10
1420.604149610514
 20
-359.8323667419616
 30
0.0
 11
1420.604149610514
 21
-375.0449347418888
 31
0.0
  0
ARC
  5
77C1
330
5F6E
100
AcDbEntity
  8
0
100
AcDbCircle
 10
1420.210449610529
 20
-375.0449347418888
 30
0.0
 40
0.3936999999984252
100
AcDbArc
 50
270.0
 51
0.0
  0
LINE
  5
77C2
330
5F6E
100
AcDbEntity
  8
0
100
AcDbLine
 10
1401.604187610588
 20
-359.8323667419616
 30
0.0
 11
1401.604187610588
 21
-375.0449347418888
 31
0.0
  0
ARC
  5
77C3
330
5F6E
100
AcDbEntity
  8
0
100
AcDbCircle
 10
1401.997887610602
 20
-375.0449347418888
 30
0.0
 40
0.3936999999984252
100
AcDbArc
 50
180.0
 51
270.0
  0
ARC
  5
77C4
330
5F6E
100
AcDbEntity
  8
0
100
AcDbCircle
 10
1401.997887610602
 20
-359.8323667419616
 30
0.0
 40
0.3936999999984252
100
AcDbArc
 50
90.0
 51
180.0
  0
LINE
  5
77C5
330
5F6E
100
AcDbEntity
  8
0
100
AcDbLine
 10
1421.604147610524
 20
-359.2862429178524
 30
0.0
 11
1421.604147610524
 21
-375.5910585659981
 31
0.0
  0
ARC
  5
77C6
330
5F6E
100
AcDbEntity
  8
0
100
AcDbCircle
 10
1421.525407610527
 20
-375.5910585659981
 30
0.0
 40
0.0787399999996851
100
AcDbArc
 50
315.0
 51
0.0
  0
ARC
  5
77C7
330
5F6E
100
AcDbEntity
  8
0
100
AcDbCircle
 10
1421.525407610527
 20
-359.2862429178524
 30
0.0
 40
0.0787399999996851
100
AcDbArc
 50
0.0
 51
45.0
  0
LINE
  5
77C8
330
5F6E
100
AcDbEntity
  8
0
100
AcDbLine
 10
1400.210489610594
 20
-375.4386347419024
 30
0.0
 11
1390.997909610639
 21
-375.4386347419024
 31
0.0
  0
LINE
  5
77C9
330
5F6E
100
AcDbEntity
  8
0
100
AcDbLine
 10
1390.997909610639
 20
-359.4386667419481
 30
0.0
 11
1400.210489610594
 21
-359.4386667419481
 31
0.0
  0
ARC
  5
77CA
330
5F6E
100
AcDbEntity
  8
0
100
AcDbCircle
 10
1400.210489610594
 20
-359.8323667419616
 30
0.0
 40
0.3936999999984252
100
AcDbArc
 50
0.0
 51
90.0
  0
LINE
  5
77CB
330
5F6E
100
AcDbEntity
  8
0
 48
5.0
100
AcDbLine
 10
1390.603717485633
 20
-365.5506225493224
 30
0.0
 11
1390.603717485633
 21
-365.5506225493224
 31
0.0
  0
REGION
  5
77CC
330
5F6E
100
AcDbEntity
  8
0
100
AcDbModelerGeometry
 70
     1
  1
mogoo nm m o          
  1
ni ^ *+0;:,4 ^ *+0\^ [ ng ^ LR nmqoqoqjgmm QK o  
  1
mjqlffffffffffffff fqfffffffffffffffj:rooh n:rono 
  1
>,27:>;:- {rn rn _nm mnmqoqoqjgmm |
  1
=0;& {rn rn {rn {m {rn {rn |
  1
3*2/ {rn rn {rn {rn {l {n |
  1
,7:33 {rn rn {rn {rn {rn {k {rn {m |
  1
9><: {rn rn {rn {rn {j {l {rn {i 90-(>-; ;0*=3: 0*+ |
  1
300/ {rn rn {rn {rn {h {k |
  1
/3>1:r,*-9><: {rn rn {rn nlfjqioknffinoinih rlikqniloihnljimggi o o o n roqolflifffffffgkmjnh o o -:):-,:@) V V V V |
  1
<0:;8: {rn rn {rn {h {h {rn {g -:):-,:; {j {rn |
  1
:;8: {rn rn {rn {f o {f iqmglngjlohnhfjgim {h {no 90-(>-; _h *1410(1 |
  1
):-+:' {rn rn {rn {g {nn |
  1
:336/,:r<*-): {rn rn {rn nlfjqioknffinoinih rlikqniloihnljimggi o ro ro rn rmqmglkjffffffogiim o o n V V |
  1
/061+ {rn rn {rn nlflqlmohlfinoinfh rlikqniloihnljimggi o |
  0
CIRCLE
  5
77CD
330
5F6E
100
AcDbEntity
  8
细实线
100
AcDbCircle
 10
1395.604199610617
 20
-364.1630671356289
 30
0.0
 40
2.165349999991338
  0
CIRCLE
  5
77CE
330
5F6E
100
AcDbEntity
  8
0
100
AcDbCircle
 10
1395.604199610617
 20
-364.1630671356289
 30
0.0
 40
1.791334999992834
  0
LINE
  5
77CF
330
5F6E
100
AcDbEntity
  8
0
100
AcDbLine
 10
1390.604209610625
 20
-359.8323667419616
 30
0.0
 11
1390.604209610625
 21
-375.0449347418888
 31
0.0
  0
ARC
  5
77D0
330
5F6E
100
AcDbEntity
  8
0
100
AcDbCircle
 10
1390.997909610639
 20
-375.0449347418888
 30
0.0
 40
0.3936999999984252
100
AcDbArc
 50
180.0
 51
270.0
  0
ARC
  5
77D1
330
5F6E
100
AcDbEntity
  8
0
100
AcDbCircle
 10
1390.997909610639
 20
-359.8323667419616
 30
0.0
 40
0.3936999999984252
100
AcDbArc
 50
90.0
 51
180.0
  0
LINE
  5
77D2
330
5F6E
100
AcDbEntity
  8
0
100
AcDbLine
 10
1400.604189610608
 20
-359.8323667419616
 30
0.0
 11
1400.604189610608
 21
-375.0449347418888
 31
0.0
  0
ARC
  5
77D3
330
5F6E
100
AcDbEntity
  8
0
100
AcDbCircle
 10
1400.210489610594
 20
-375.0449347418888
 30
0.0
 40
0.3936999999984252
100
AcDbArc
 50
270.0
 51
0.0
  0
LINE
  5
77D4
330
5F6E
100
AcDbEntity
  8
0
100
AcDbLine
 10
1389.604211610645
 20
-359.2862429178524
 30
0.0
 11
1389.604211610645
 21
-375.5910585659981
 31
0.0
  0
ARC
  5
77D5
330
5F6E
100
AcDbEntity
  8
0
100
AcDbCircle
 10
1389.682951610641
 20
-375.5910585659981
 30
0.0
 40
0.0787399999996851
100
AcDbArc
 50
180.0
 51
225.0
  0
LINE
  5
77D6
330
5F6E
100
AcDbEntity
  8
0
100
AcDbLine
 10
1390.396108198578
 20
-376.4155703298383
 30
0.0
 11
1389.62727402269
 21
-375.6467361539502
 31
0.0
  0
ARC
  5
77D7
330
5F6E
100
AcDbEntity
  8
0
100
AcDbCircle
 10
1390.451785786529
 20
-376.3598927418863
 30
0.0
 40
0.0787399999996851
100
AcDbArc
 50
225.0
 51
270.0
  0
LINE
  5
77D8
330
5F6E
100
AcDbEntity
  8
0
100
AcDbLine
 10
1390.396108198578
 20
-358.4617311540122
 30
0.0
 11
1389.62727402269
 21
-359.2305653299003
 31
0.0
  0
ARC
  5
77D9
330
5F6E
100
AcDbEntity
  8
0
100
AcDbCircle
 10
1389.682951610641
 20
-359.2862429178524
 30
0.0
 40
0.0787399999996851
100
AcDbArc
 50
135.0
 51
180.0
  0
LINE
  5
77DB
330
5F6E
100
AcDbEntity
  8
0
100
AcDbLine
 10
1421.604147610524
 20
-339.6857849648415
 30
0.0
 11
1420.722259610524
 21
-339.6857849648415
 31
0.0
  0
LINE
  5
77DF
330
5F6E
100
AcDbEntity
  8
0
100
AcDbLine
 10
1401.486077610607
 20
-339.6857849648415
 30
0.0
 11
1400.722299610588
 21
-339.6857849648415
 31
0.0
  0
LINE
  5
77E0
330
5F6E
100
AcDbEntity
  8
虚线
 48
5.0
100
AcDbLine
 10
1413.387628610549
 20
-348.7445345638091
 30
0.0
 11
1408.820708610554
 21
-348.7445345638091
 31
0.0
  0
LINE
  5
77E1
330
5F6E
100
AcDbEntity
  8
中心线
 48
2.0
100
AcDbLine
 10
1411.104168610551
 20
-350.4161078413361
 30
0.0
 11
1411.104168610551
 21
-347.0729612862821
 31
0.0
  0
ARC
  5
77E2
330
5F6E
100
AcDbEntity
  8
虚线
 48
5.0
100
AcDbCircle
 10
1413.460624604933
 20
-348.8626445637899
 30
0.0
 40
0.1181099999995276
100
AcDbArc
 50
90.0
 51
153.434948917631
  0
ARC
  5
77E3
330
5F6E
100
AcDbEntity
  8
虚线
 48
5.0
100
AcDbCircle
 10
1408.747712616169
 20
-348.8626445637899
 30
0.0
 40
0.1181099999995276
100
AcDbArc
 50
26.56505132853849
 51
90.0
  0
ARC
  5
77E4
330
5F6E
100
AcDbEntity
  8
虚线
 48
5.0
100
AcDbCircle
 10
1413.23302061336
 20
-348.9216995638094
 30
0.0
 40
0.0590549999997638
100
AcDbArc
 50
270.0000000416933
 51
333.4349483493767
  0
ARC
  5
77E5
330
5F6E
100
AcDbEntity
  8
虚线
 48
5.0
100
AcDbCircle
 10
1408.975316607771
 20
-348.9216995638094
 30
0.0
 40
0.0590549999997638
100
AcDbArc
 50
206.5650522188776
 51
269.9999999583067
  0
LINE
  5
77E6
330
5F6E
100
AcDbEntity
  8
虚线
 48
5.0
100
AcDbLine
 10
1408.922496209997
 20
-348.9481097626672
 30
0.0
 11
1408.853353411687
 21
-348.8098241660164
 31
0.0
  0
LINE
  5
77E7
330
5F6E
100
AcDbEntity
  8
虚线
 48
5.0
100
AcDbLine
 10
1413.23302061336
 20
-348.9807545637998
 30
0.0
 11
1412.875818610554
 21
-348.9807545637998
 31
0.0
  0
LINE
  5
77E8
330
5F6E
100
AcDbEntity
  8
虚线
 48
5.0
100
AcDbLine
 10
1409.332518610549
 20
-349.0398095637901
 30
0.0
 11
1409.332518610578
 21
-348.9807545637998
 31
0.0
  0
LINE
  5
77E9
330
5F6E
100
AcDbEntity
  8
虚线
 48
5.0
100
AcDbLine
 10
1413.285841011104
 20
-348.9481097626672
 30
0.0
 11
1413.354983809416
 21
-348.8098241660164
 31
0.0
  0
LINE
  5
77EA
330
5F6E
100
AcDbEntity
  8
虚线
 48
5.0
100
AcDbLine
 10
1412.875818610554
 20
-349.0398095637901
 30
0.0
 11
1412.875818610554
 21
-348.9807545637998
 31
0.0
  0
LINE
  5
77EB
330
5F6E
100
AcDbEntity
  8
虚线
 48
5.0
100
AcDbLine
 10
1409.332518610578
 20
-348.9807545637998
 30
0.0
 11
1408.975316607771
 21
-348.9807545637998
 31
0.0
  0
LINE
  5
77EC
330
5F6E
100
AcDbEntity
  8
虚线
 48
5.0
100
AcDbLine
 10
1412.875818610554
 20
-348.9807545637998
 30
0.0
 11
1409.332518610578
 21
-348.9807545637998
 31
0.0
  0
LINE
  5
77ED
330
5F6E
100
AcDbEntity
  8
0
100
AcDbLine
 10
1413.338661408849
 20
-348.9745199615538
 30
0.0
 11
1413.407804207188
 21
-348.8362343649031
 31
0.0
  0
ARC
  5
77EE
330
5F6E
100
AcDbEntity
  8
0
100
AcDbCircle
 10
1413.460624604933
 20
-348.8626445637899
 30
0.0
 40
0.0590549999997638
100
AcDbArc
 50
90.0
 51
153.434948917631
  0
ARC
  5
77EF
330
5F6E
100
AcDbEntity
  8
0
100
AcDbCircle
 10
1413.23302061336
 20
-348.9216995638094
 30
0.0
 40
0.1181099999995276
100
AcDbArc
 50
270.0000000416933
 51
333.4349483493767
  0
LINE
  5
77F0
330
5F6E
100
AcDbEntity
  8
0
100
AcDbLine
 10
1413.23302061336
 20
-349.0398095637901
 30
0.0
 11
1412.875818610554
 21
-349.0398095637901
 31
0.0
  0
LINE
  5
77F1
330
5F6E
100
AcDbEntity
  8
0
  6
Continuous
100
AcDbLine
 10
1412.875818610554
 20
-349.0398095637901
 30
0.0
 11
1409.332518610578
 21
-349.0398095637901
 31
0.0
  0
LINE
  5
77F2
330
5F6E
100
AcDbEntity
  8
0
100
AcDbLine
 10
1409.332518610549
 20
-349.0398095637901
 30
0.0
 11
1408.975316607771
 21
-349.0398095637901
 31
0.0
  0
ARC
  5
77F3
330
5F6E
100
AcDbEntity
  8
0
100
AcDbCircle
 10
1408.975316607771
 20
-348.9216995638094
 30
0.0
 40
0.1181099999995276
100
AcDbArc
 50
206.5650522188776
 51
269.9999999583067
  0
LINE
  5
77F4
330
5F6E
100
AcDbEntity
  8
0
100
AcDbLine
 10
1408.869675812254
 20
-348.9745199615538
 30
0.0
 11
1408.800533013914
 21
-348.8362343649031
 31
0.0
  0
ARC
  5
77F5
330
5F6E
100
AcDbEntity
  8
0
100
AcDbCircle
 10
1408.747712616169
 20
-348.8626445637899
 30
0.0
 40
0.0590549999997638
100
AcDbArc
 50
26.56505132853849
 51
90.0
  0
LINE
  5
77F8
330
5F6E
100
AcDbEntity
  8
0
100
AcDbLine
 10
1401.486077610607
 20
-339.7448399648319
 30
0.0
 11
1400.722299610588
 21
-339.7448399648319
 31
0.0
  0
LINE
  5
77F9
330
5F6E
100
AcDbEntity
  8
0
100
AcDbLine
 10
1421.604147610524
 20
-339.7448399648319
 30
0.0
 11
1420.722259610524
 21
-339.7448399648319
 31
0.0
  0
LINE
  5
77FB
330
5F6E
100
AcDbEntity
  8
0
100
AcDbLine
 10
1421.604147610524
 20
-339.6857849648415
 30
0.0
 11
1421.604147610524
 21
-339.7448399648319
 31
0.0
  0
LINE
  5
7800
330
5F6E
100
AcDbEntity
  8
虚线
 48
5.0
100
AcDbLine
 10
1402.510717512208
 20
-348.6296622377844
 30
0.0
 11
1408.747712616169
 21
-348.7445345638091
 31
0.0
  0
LINE
  5
7801
330
5F6E
100
AcDbEntity
  8
0
100
AcDbLine
 10
1402.455190395854
 20
-348.6884140413697
 30
0.0
 11
1408.747712616169
 21
-348.8035895637995
 31
0.0
  0
LINE
  5
7806
330
5F6E
100
AcDbEntity
  8
0
100
AcDbLine
 10
1400.722299610588
 20
-339.6857849648415
 30
0.0
 11
1390.486099610644
 21
-339.6857849648415
 31
0.0
  0
LINE
  5
7807
330
5F6E
100
AcDbEntity
  8
0
100
AcDbLine
 10
1389.604211610645
 20
-339.6857849648415
 30
0.0
 11
1390.486099610644
 21
-339.6857849648415
 31
0.0
  0
LINE
  5
780A
330
5F6E
100
AcDbEntity
  8
虚线
 48
5.0
100
AcDbLine
 10
1391.432415088578
 20
-347.6311409760103
 30
0.0
 11
1393.247743616234
 21
-347.7445365637992
 31
0.0
  0
LINE
  5
780B
330
5F6E
100
AcDbEntity
  8
虚线
 48
5.0
100
AcDbLine
 10
1397.960655083079
 20
-347.7445365637992
 30
0.0
 11
1393.247743616234
 21
-347.7445365637992
 31
0.0
  0
LINE
  5
780C
330
5F6E
100
AcDbEntity
  8
中心线
 48
2.0
100
AcDbLine
 10
1395.604199610617
 20
-349.4161098413264
 30
0.0
 11
1395.604199610617
 21
-346.0729632862722
 31
0.0
  0
ARC
  5
780D
330
5F6E
100
AcDbEntity
  8
虚线
 48
5.0
100
AcDbCircle
 10
1393.247743616234
 20
-347.8626465638092
 30
0.0
 40
0.1181099999995276
100
AcDbArc
 50
26.56505108236893
 51
90.0
  0
ARC
  5
780E
330
5F6E
100
AcDbEntity
  8
虚线
 48
5.0
100
AcDbCircle
 10
1397.960655604998
 20
-347.8626465638092
 30
0.0
 40
0.1181099999995276
100
AcDbArc
 50
90.0
 51
153.4349486714615
  0
ARC
  5
780F
330
5F6E
100
AcDbEntity
  8
虚线
 48
5.0
100
AcDbCircle
 10
1393.475347607836
 20
-347.9217015637996
 30
0.0
 40
0.0590549999997638
100
AcDbArc
 50
206.5650516506233
 51
269.9999999583067
  0
ARC
  5
7810
330
5F6E
100
AcDbEntity
  8
虚线
 48
5.0
100
AcDbCircle
 10
1397.733051613396
 20
-347.9217015637996
 30
0.0
 40
0.0590549999997638
100
AcDbArc
 50
270.0000000416933
 51
333.4349477811223
  0
LINE
  5
7811
330
5F6E
100
AcDbEntity
  8
虚线
 48
5.0
100
AcDbLine
 10
1397.78587201117
 20
-347.9481117626572
 30
0.0
 11
1397.855014809481
 21
-347.8098261660357
 31
0.0
  0
LINE
  5
7812
330
5F6E
100
AcDbEntity
  8
虚线
 48
5.0
100
AcDbLine
 10
1393.475347607836
 20
-347.9807565637899
 30
0.0
 11
1393.832549610614
 21
-347.9807565637899
 31
0.0
  0
LINE
  5
7813
330
5F6E
100
AcDbEntity
  8
虚线
 48
5.0
100
AcDbLine
 10
1397.375849610619
 20
-348.0398115638093
 30
0.0
 11
1397.375849610619
 21
-347.9807565637899
 31
0.0
  0
LINE
  5
7814
330
5F6E
100
AcDbEntity
  8
虚线
 48
5.0
100
AcDbLine
 10
1393.422527210063
 20
-347.9481117626572
 30
0.0
 11
1393.353384411753
 21
-347.8098261660357
 31
0.0
  0
LINE
  5
7815
330
5F6E
100
AcDbEntity
  8
虚线
 48
5.0
100
AcDbLine
 10
1393.832549610614
 20
-348.0398115638093
 30
0.0
 11
1393.832549610614
 21
-347.9807565637899
 31
0.0
  0
LINE
  5
7816
330
5F6E
100
AcDbEntity
  8
虚线
 48
5.0
100
AcDbLine
 10
1397.375849610619
 20
-347.9807565637899
 30
0.0
 11
1397.733051613396
 21
-347.9807565637899
 31
0.0
  0
LINE
  5
7817
330
5F6E
100
AcDbEntity
  8
虚线
 48
5.0
100
AcDbLine
 10
1393.832549610614
 20
-347.9807565637899
 30
0.0
 11
1397.375849610619
 21
-347.9807565637899
 31
0.0
  0
LINE
  5
7818
330
5F6E
100
AcDbEntity
  8
0
100
AcDbLine
 10
1393.369706812318
 20
-347.9745219615439
 30
0.0
 11
1393.300564013979
 21
-347.8362363648932
 31
0.0
  0
ARC
  5
7819
330
5F6E
100
AcDbEntity
  8
0
100
AcDbCircle
 10
1393.247743616234
 20
-347.8626465638092
 30
0.0
 40
0.0590549999997638
100
AcDbArc
 50
26.56505108236893
 51
90.0
  0
LINE
  5
781A
330
5F6E
100
AcDbEntity
  8
0
100
AcDbLine
 10
1391.376865269562
 20
-347.6875269857194
 30
0.0
 11
1393.247743616234
 21
-347.8035915637896
 31
0.0
  0
ARC
  5
781B
330
5F6E
100
AcDbEntity
  8
0
100
AcDbCircle
 10
1393.475347607836
 20
-347.9217015637996
 30
0.0
 40
0.1181099999995276
100
AcDbArc
 50
206.5650516506233
 51
269.9999999583067
  0
LINE
  5
781C
330
5F6E
100
AcDbEntity
  8
0
100
AcDbLine
 10
1393.475347607836
 20
-348.0398115638093
 30
0.0
 11
1393.832549610614
 21
-348.0398115638093
 31
0.0
  0
LINE
  5
781D
330
5F6E
100
AcDbEntity
  8
0
100
AcDbLine
 10
1393.832549610614
 20
-348.0398115638093
 30
0.0
 11
1397.375849610619
 21
-348.0398115638093
 31
0.0
  0
LINE
  5
781E
330
5F6E
100
AcDbEntity
  8
0
100
AcDbLine
 10
1397.375849610619
 20
-348.0398115638093
 30
0.0
 11
1397.733051613396
 21
-348.0398115638093
 31
0.0
  0
ARC
  5
781F
330
5F6E
100
AcDbEntity
  8
0
100
AcDbCircle
 10
1397.733051613396
 20
-347.9217015637996
 30
0.0
 40
0.1181099999995276
100
AcDbArc
 50
270.0000000416933
 51
333.4349477811223
  0
LINE
  5
7820
330
5F6E
100
AcDbEntity
  8
0
100
AcDbLine
 10
1397.838692408914
 20
-347.9745219615439
 30
0.0
 11
1397.907835207255
 21
-347.8362363648932
 31
0.0
  0
ARC
  5
7821
330
5F6E
100
AcDbEntity
  8
0
100
AcDbCircle
 10
1397.960655604998
 20
-347.8626465638092
 30
0.0
 40
0.0590549999997638
100
AcDbArc
 50
90.0
 51
153.4349486714615
  0
LINE
  5
7822
330
5F6E
100
AcDbEntity
  8
0
100
AcDbLine
 10
1389.604211610645
 20
-339.7448399648319
 30
0.0
 11
1390.486099610644
 21
-339.7448399648319
 31
0.0
  0
LINE
  5
7825
330
5F6E
100
AcDbEntity
  8
0
100
AcDbLine
 10
1389.604211610645
 20
-339.6857849648415
 30
0.0
 11
1389.604211610645
 21
-339.7448399648319
 31
0.0
  0
LINE
  5
7828
330
5F6E
100
AcDbEntity
  8
虚线
 48
5.0
100
AcDbLine
 10
1399.775984132662
 20
-347.6311409759866
 30
0.0
 11
1397.960655604998
 21
-347.7445365637992
 31
0.0
  0
LINE
  5
782A
330
5F6E
100
AcDbEntity
  8
0
100
AcDbLine
 10
1399.831533951672
 20
-347.6875269857193
 30
0.0
 11
1397.960655604998
 21
-347.8035915637896
 31
0.0
  0
LINE
  5
782C
330
5F6E
100
AcDbEntity
  8
0
100
AcDbLine
 10
1390.997909610639
 20
-360.0292171356616
 30
0.0
 11
1393.9047521255
 21
-362.6379219566832
 31
0.0
  0
LINE
  5
782D
330
5F6E
100
AcDbEntity
  8
0
100
AcDbLine
 10
1400.210489610594
 20
-375.2417851355888
 30
0.0
 11
1396.480857105742
 21
-366.2715408034371
 31
0.0
  0
LINE
  5
782E
330
5F6E
100
AcDbEntity
  8
0
100
AcDbLine
 10
1397.303647095733
 20
-362.6379219566832
 30
0.0
 11
1400.210489610594
 21
-360.0292171356616
 31
0.0
  0
LINE
  5
782F
330
5F6E
100
AcDbEntity
  8
0
100
AcDbLine
 10
1394.72754211549
 20
-366.2715408034371
 30
0.0
 11
1390.997909610639
 21
-375.2417851355888
 31
0.0
  0
LINE
  5
7830
330
5F6E
100
AcDbEntity
  8
虚线
 48
5.0
100
AcDbLine
 10
1419.697619708894
 20
-348.6296622377848
 30
0.0
 11
1413.460624604933
 21
-348.7445345638091
 31
0.0
  0
LINE
  5
7832
330
5F6E
100
AcDbEntity
  8
0
100
AcDbLine
 10
1419.753146825247
 20
-348.6884140413697
 30
0.0
 11
1413.460624604933
 21
-348.8035895637995
 31
0.0
  0
LINE
  5
7834
330
5F6E
100
AcDbEntity
  8
0
100
AcDbLine
 10
1420.722259610524
 20
-339.7448399648319
 30
0.0
 11
1390.486099610644
 21
-339.7448399648319
 31
0.0
  0
LINE
  5
7835
330
5F6E
100
AcDbEntity
  8
细实线
100
AcDbLine
 10
1397.960655604969
 20
-347.8035915637896
 30
0.0
 11
1393.247743616234
 21
-347.8035915637896
 31
0.0
  0
LINE
  5
7836
330
5F6E
100
AcDbEntity
  8
细实线
100
AcDbLine
 10
1413.460624604933
 20
-348.8035895637995
 30
0.0
 11
1408.747712616169
 21
-348.8035895637995
 31
0.0
  0
LINE
  5
7837
330
5F6E
100
AcDbEntity
  8
中心线
  6
Continuous
 62
     1
100
AcDbLine
 10
1420.210449610529
 20
-406.166467248976
 30
0.0
 11
1390.997909610639
 21
-406.166467248976
 31
0.0
  0
LINE
  5
7838
330
5F6E
100
AcDbEntity
  8
中心线
  6
Continuous
 62
     1
100
AcDbLine
 10
1390.997909610639
 20
-390.0090192490571
 30
0.0
 11
1420.2104496105
 21
-390.0090192490571
 31
0.0
  0
ARC
  5
7839
330
5F6E
100
AcDbEntity
  8
中心线
  6
Continuous
 62
     1
100
AcDbCircle
 10
1420.2104496105
 20
-390.4814592490384
 30
0.0
 40
0.4724399999981105
100
AcDbArc
 50
0.0
 51
90.0
  0
LINE
  5
783A
330
5F6E
100
AcDbEntity
  8
中心线
  6
Continuous
 62
     1
100
AcDbLine
 10
1390.525469610628
 20
-405.6940272489947
 30
0.0
 11
1390.525469610628
 21
-390.4814592490384
 31
0.0
  0
ARC
  5
783B
330
5F6E
100
AcDbEntity
  8
中心线
  6
Continuous
 62
     1
100
AcDbCircle
 10
1390.997909610639
 20
-390.4814592490384
 30
0.0
 40
0.4724399999981105
100
AcDbArc
 50
90.0
 51
180.0
  0
ARC
  5
783C
330
5F6E
100
AcDbEntity
  8
中心线
  6
Continuous
 62
     1
100
AcDbCircle
 10
1390.997909610639
 20
-405.6940272489947
 30
0.0
 40
0.4724399999981105
100
AcDbArc
 50
180.0
 51
270.0
  0
LINE
  5
783D
330
5F6E
100
AcDbEntity
  8
中心线
  6
Continuous
 62
     1
100
AcDbLine
 10
1420.68288961051
 20
-405.6940272489947
 30
0.0
 11
1420.68288961051
 21
-390.4814592490384
 31
0.0
  0
ARC
  5
783E
330
5F6E
100
AcDbEntity
  8
中心线
  6
Continuous
 62
     1
100
AcDbCircle
 10
1420.210449610529
 20
-405.6940272489947
 30
0.0
 40
0.4724399999981105
100
AcDbArc
 50
270.0
 51
0.0
  0
DIMENSION
  5
783F
330
5F6E
100
AcDbEntity
  8
标注
100
AcDbDimension
  2
*D59
 10
1401.604187610588
 20
-378.4980630352921
 30
0.0
 11
1411.104168610558
 21
-378.4980630352921
 31
0.0
 70
    32
 71
     5
 42
18.99996199994007
  3
副本STANDARD
100
AcDbAlignedDimension
 13
1420.604149610528
 23
-375.0449347418888
 33
0.0
 14
1401.604187610588
 24
-375.0449347418888
 34
0.0
 50
180.0
100
AcDbRotatedDimension
1001
ACAD
1000
DSTYLE
1002
{
1070
   345
1005
5F5E
1070
   346
1005
5F5E
1070
   347
1005
5F5E
1002
}
  0
DIMENSION
  5
7840
330
5F6E
100
AcDbEntity
  8
标注
100
AcDbDimension
  2
*D60
 10
1390.604209610625
 20
-378.4980630352921
 30
0.0
 11
1395.604199610616
 21
-378.4980630352921
 31
0.0
 70
    32
 71
     5
 42
9.999979999982995
  3
副本STANDARD
100
AcDbAlignedDimension
 13
1400.604189610608
 23
-375.0449347418888
 33
0.0
 14
1390.604209610625
 24
-375.0449347418888
 34
0.0
 50
180.0
100
AcDbRotatedDimension
1001
ACAD
1000
DSTYLE
1002
{
1070
   345
1005
5F5E
1070
   346
1005
5F5E
1070
   347
1005
5F5E
1002
}
  0
DIMENSION
  5
7841
330
5F6E
100
AcDbEntity
  8
标注
100
AcDbDimension
  2
*D61
 10
1389.604211610645
 20
-380.3301579976131
 30
0.0
 11
1405.604179610584
 21
-380.3301579976131
 31
0.0
 70
    32
 71
     5
 42
31.9999359998792
  3
副本STANDARD
100
AcDbAlignedDimension
 13
1421.604147610524
 23
-375.5910585659981
 33
0.0
 14
1389.604211610645
 24
-375.5910585659981
 34
0.0
 50
180.0
100
AcDbRotatedDimension
1001
ACAD
1000
DSTYLE
1002
{
1070
   345
1005
5F5E
1070
   346
1005
5F5E
1070
   347
1005
5F5E
1002
}
  0
DIMENSION
  5
7844
330
5F6E
100
AcDbEntity
  8
标注
100
AcDbDimension
  2
*D62
 10
1390.525469610628
 20
-408.9144010626476
 30
0.0
 11
1405.60417961057
 21
-408.9144010626476
 31
0.0
 70
    32
 71
     5
 42
30.15741999988245
  3
副本STANDARD
100
AcDbAlignedDimension
 13
1420.68288961051
 23
-405.6940272489947
 33
0.0
 14
1390.525469610628
 24
-405.6940272489947
 34
0.0
 50
180.0
100
AcDbRotatedDimension
1001
ACAD
1000
DSTYLE
1002
{
1070
   345
1005
5F5E
1070
   346
1005
5F5E
1070
   347
1005
5F5E
1002
}
  0
DIMENSION
  5
7846
330
5F6E
100
AcDbEntity
  8
标注
100
AcDbDimension
  2
*D64
 10
1387.64476208271
 20
-347.6857849648093
 30
0.0
 11
1387.64476208271
 21
-343.6857849648252
 31
0.0
 70
    32
 71
     5
 42
7.999999999967882
  3
副本STANDARD
100
AcDbAlignedDimension
 13
1389.604211610645
 23
-339.6857849648415
 33
0.0
 14
1389.604211610645
 24
-347.6857849648093
 34
0.0
 50
90.0
100
AcDbRotatedDimension
1001
ACAD
1000
DSTYLE
1002
{
1070
   345
1005
5F5E
1070
   346
1005
5F5E
1070
   347
1005
5F5E
1002
}
  0
DIMENSION
  5
7847
330
5F6E
100
AcDbEntity
  8
标注
100
AcDbDimension
  2
*D65
 10
1423.552075784404
 20
-348.6857849648054
 30
0.0
 11
1423.552075784404
 21
-344.1857849648233
 31
0.0
 70
    32
 71
     5
 42
8.999999999963904
  3
副本STANDARD
100
AcDbAlignedDimension
 13
1421.604147610524
 23
-339.6857849648415
 33
0.0
 14
1421.604147610524
 24
-348.6857849648054
 34
0.0
 50
90.0
100
AcDbRotatedDimension
1001
ACAD
1000
DSTYLE
1002
{
1070
   345
1005
5F5E
1070
   346
1005
5F5E
1070
   347
1005
5F5E
1002
}
  0
DIMENSION
  5
7848
330
5F6E
100
AcDbEntity
  8
标注
100
AcDbDimension
  2
*D66
 10
1420.210449610529
 20
-405.6940272489943
 30
0.0
 11
1419.796670011185
 21
-404.5924858442536
 31
0.0
 70
   164
 71
     5
 42
0.4724399999984145
  3
副本STANDARD
100
AcDbRadialDimension
 15
1420.475795201292
 25
-406.0849124892645
 35
0.0
 40
0.0
1001
ACAD
1000
DSTYLE
1002
{
1070
   288
1070
     1
1070
   345
1005
5F5E
1070
   346
1005
5F5E
1070
   347
1005
5F5E
1002
}
1001
ACAD_DSTYLE_DIMRADIAL_EXTENSION
1070
   387
1070
     1
1070
   388
1040
3.141592653589792
1070
   390
1040
4.712388980384688
  0
DIMENSION
  5
7849
330
5F6E
100
AcDbEntity
  8
标注
100
AcDbDimension
  2
*D54
 10
1420.210449610529
 20
-375.0449347418885
 30
0.0
 11
1419.590155185049
 21
-373.9766249881068
 31
0.0
 70
   164
 71
     5
 42
0.3936999999982618
  3
副本STANDARD
100
AcDbRadialDimension
 15
1420.501025547436
 25
-375.3105760694139
 35
0.0
 40
0.0
1001
ACAD
1000
DSTYLE
1002
{
1070
   288
1070
     1
1070
   345
1005
5F5E
1070
   346
1005
5F5E
1070
   347
1005
5F5E
1002
}
1001
ACAD_DSTYLE_DIMRADIAL_EXTENSION
1070
   387
1070
     1
1070
   388
1040
3.141592653589792
1070
   390
1040
4.712388980384688
  0
DIMENSION
  5
795B
330
5F6E
100
AcDbEntity
  8
标注
100
AcDbDimension
  2
*D67
 10
1422.907771028004
 20
-390.009019249014
 30
0.0
 11
1422.907771028004
 21
-398.0877432489816
 31
0.0
 70
    32
 71
     5
 42
16.15744799993575
  3
副本STANDARD
100
AcDbAlignedDimension
 13
1420.210449610529
 23
-406.1664672489497
 33
0.0
 14
1420.2104496105
 24
-390.009019249014
 34
0.0
 50
90.0
100
AcDbRotatedDimension
1001
ACAD
1000
DSTYLE
1002
{
1070
   345
1005
5F5E
1070
   346
1005
5F5E
1070
   347
1005
5F5E
1002
}
  0
DIMENSION
  5
7973
330
5F6E
100
AcDbEntity
  8
标注
100
AcDbDimension
  2
*D68
 10
1423.712910987005
 20
-359.4386667419631
 30
0.0
 11
1423.712910987005
 21
-367.438650741925
 31
0.0
 70
    32
 71
     5
 42
15.99996799992414
  3
副本STANDARD
100
AcDbAlignedDimension
 13
1420.2104496105
 23
-375.4386347418873
 33
0.0
 14
1420.2104496105
 24
-359.4386667419631
 34
0.0
 50
90.0
100
AcDbRotatedDimension
1001
ACAD
1000
DSTYLE
1002
{
1070
   345
1005
5F5E
1070
   346
1005
5F5E
1070
   347
1005
5F5E
1002
}
  0
DIMENSION
  5
7974
330
5F6E
100
AcDbEntity
  8
标注
100
AcDbDimension
  2
*D69
 10
1425.570854465809
 20
-358.4386687419673
 30
0.0
 11
1425.570854465809
 21
-367.438650741925
 31
0.0
 70
    32
 71
     5
 42
17.99996399991585
  3
副本STANDARD
100
AcDbAlignedDimension
 13
1420.604149610515
 23
-376.4386327418832
 33
0.0
 14
1420.604149610515
 24
-358.4386687419673
 34
0.0
 50
90.0
100
AcDbRotatedDimension
1001
ACAD
1000
DSTYLE
1002
{
1070
   345
1005
5F5E
1070
   346
1005
5F5E
1070
   347
1005
5F5E
1002
}
  0
TEXT
  5
79A3
330
5F6E
100
AcDbEntity
  8
标注
100
AcDbText
 10
1401.780367717614
 20
-353.1357865169783
 30
0.0
 40
0.7874015748000001
  1
FRONT VIEW
100
AcDbText
  0
TEXT
  5
79A4
330
5F6E
100
AcDbEntity
  8
标注
100
AcDbText
 10
1400.250552010736
 20
-383.753669520735
 30
0.0
 40
0.7874015748000001
  1
OVERHEAD VIEW
100
AcDbText
  0
TEXT
  5
79A5
330
5F6E
100
AcDbEntity
  8
标注
100
AcDbText
 10
1407.163301957945
 20
-413.4551109058881
 30
0.0
 40
0.7874015748000001
  1
 CUTOUT
100
AcDbText
  0
LINE
  5
79A6
330
5F6E
100
AcDbEntity
  8
中心线
  6
Continuous
 62
     1
100
AcDbLine
 10
1399.497895877409
 20
-413.2019094385842
 30
0.0
 11
1405.714700881468
 21
-413.2019094385842
 31
0.0
  0
LINE
  5
7A64
330
5F6E
100
AcDbEntity
  8
标注线
100
AcDbLine
 10
1390.604209610625
 20
-339.7448399648319
 30
0.0
 11
1391.063993548958
 21
-347.2622409068157
 31
0.0
  0
LINE
  5
7A65
330
5F6E
100
AcDbEntity
  8
标注线
100
AcDbLine
 10
1390.545264642214
 20
-339.7484451935445
 30
0.0
 11
1391.008276153365
 21
-347.3186164846252
 31
0.0
  0
ARC
  5
7A66
330
5F6E
100
AcDbEntity
  8
标注
100
AcDbCircle
 10
1391.456960005028
 20
-347.2382060487313
 30
0.0
 40
0.3937007874
100
AcDbArc
 50
183.4999999999701
 51
266.4256288684864
  0
ARC
  5
7A67
330
5F6E
100
AcDbEntity
  8
标注
100
AcDbCircle
 10
1391.401242609435
 20
-347.2945816265406
 30
0.0
 40
0.3937007874
100
AcDbArc
 50
183.4999999999701
 51
266.4500637108661
  0
LINE
  5
7A68
330
5F6E
100
AcDbEntity
  8
标注线
100
AcDbLine
 10
1400.604189610609
 20
-339.7448399648319
 30
0.0
 11
1400.144405672277
 21
-347.2622409067923
 31
0.0
  0
LINE
  5
7A69
330
5F6E
100
AcDbEntity
  8
标注线
100
AcDbLine
 10
1400.663134579018
 20
-339.7484451935445
 30
0.0
 11
1400.200123067869
 21
-347.318616484625
 31
0.0
  0
ARC
  5
7A6B
330
5F6E
100
AcDbEntity
  8
标注
100
AcDbCircle
 10
1399.751439216207
 20
-347.2382060487078
 30
0.0
 40
0.3937007874
100
AcDbArc
 50
273.5743711321741
 51
356.5000000000298
  0
ARC
  5
7A6C
330
5F6E
100
AcDbEntity
  8
标注
100
AcDbCircle
 10
1399.807156611799
 20
-347.2945816265406
 30
0.0
 40
0.3937007874
100
AcDbArc
 50
273.5499362891339
 51
356.5000000000298
  0
LINE
  5
7A75
330
5F6E
100
AcDbEntity
  8
标注线
100
AcDbLine
 10
1401.604187610588
 20
-339.7448399648319
 30
0.0
 11
1402.125000966674
 21
-348.2600630668563
 31
0.0
  0
LINE
  5
7A76
330
5F6E
100
AcDbEntity
  8
标注线
100
AcDbLine
 10
1401.545242642177
 20
-339.7484451935445
 30
0.0
 11
1402.069428856747
 21
-348.3188140443271
 31
0.0
  0
ARC
  5
7A77
330
5F6E
100
AcDbEntity
  8
标注
100
AcDbCircle
 10
1402.517967422744
 20
-348.2360282087718
 30
0.0
 40
0.3937007874
100
AcDbArc
 50
183.4999999999701
 51
268.9448516001497
  0
ARC
  5
7A78
330
5F6E
100
AcDbEntity
  8
标注
100
AcDbCircle
 10
1402.462395312817
 20
-348.2947791862427
 30
0.0
 40
0.3937007874
100
AcDbArc
 50
183.4999999999701
 51
268.9514006761499
  0
LINE
  5
7A79
330
5F6E
100
AcDbEntity
  8
标注线
100
AcDbLine
 10
1420.604149610514
 20
-339.7448399648319
 30
0.0
 11
1420.083336254428
 21
-348.2600630668569
 31
0.0
  0
LINE
  5
7A7A
330
5F6E
100
AcDbEntity
  8
标注线
100
AcDbLine
 10
1420.663094578924
 20
-339.7484451935445
 30
0.0
 11
1420.138908364354
 21
-348.3188140443271
 31
0.0
  0
ARC
  5
7A7B
330
5F6E
100
AcDbEntity
  8
标注
100
AcDbCircle
 10
1419.690369798358
 20
-348.2360282087723
 30
0.0
 40
0.3937007874
100
AcDbArc
 50
271.0551483998504
 51
356.5000000000298
  0
ARC
  5
7A7C
330
5F6E
100
AcDbEntity
  8
标注
100
AcDbCircle
 10
1419.745941908284
 20
-348.2947791862427
 30
0.0
 40
0.3937007874
100
AcDbArc
 50
271.0485993238501
 51
356.5000000000298
  0
ENDSEC
  0
SECTION
  2
OBJECTS
  0
DICTIONARY
  5
5F06
330
0
100
AcDbDictionary
281
     1
  3
ACAD_2007HEADERVARS_RT
350
7AF2
  3
ACAD_COLOR
350
5F64
  3
ACAD_GROUP
350
5F07
  3
ACAD_LAYOUT
350
5F63
  3
ACAD_MATERIAL
350
5F0A
  3
ACAD_MLEADERSTYLE
350
5F67
  3
ACAD_MLINESTYLE
350
5F60
  3
ACAD_PLOTSETTINGS
350
5F62
  3
ACAD_PLOTSTYLENAME
350
5F08
  3
ACAD_SCALELIST
350
5F34
  3
ACAD_TABLESTYLE
350
5F65
  3
ACAD_VISUALSTYLE
350
5F23
  3
ACDB_RECOMPOSE_DATA
350
74C4
  3
AcDbVariableDictionary
350
6102
  3
lxx_dict
350
60F2
  0
DICTIONARY
  5
61B7
330
5EFC
100
AcDbDictionary
280
     1
281
     1
  3
ACAD_LAYERSTATES
360
61B8
  0
DICTIONARY
  5
60F4
330
5F56
100
AcDbDictionary
280
     1
281
     1
  3
ADSK_XREC_LAYER_RECONCILED
360
60F5
  0
DICTIONARY
  5
60F6
330
5F72
100
AcDbDictionary
280
     1
281
     1
  3
ADSK_XREC_LAYER_RECONCILED
360
60F7
  0
DICTIONARY
  5
60F8
330
5F7D
100
AcDbDictionary
280
     1
281
     1
  3
ADSK_XREC_LAYER_RECONCILED
360
60F9
  0
DICTIONARY
  5
60FA
330
5F7E
100
AcDbDictionary
280
     1
281
     1
  3
ADSK_XREC_LAYER_RECONCILED
360
60FB
  0
DICTIONARY
  5
60FC
330
5F80
100
AcDbDictionary
280
     1
281
     1
  3
ADSK_XREC_LAYER_RECONCILED
360
60FD
  0
DICTIONARY
  5
61B2
330
61B1
100
AcDbDictionary
280
     1
281
     1
  0
DICTIONARY
  5
6B9D
330
6B9C
100
AcDbDictionary
280
     1
281
     1
  0
DICTIONARY
  5
654F
330
5F6E
100
AcDbDictionary
280
     1
281
     1
  3
ACAD_SORTENTS
360
6550
  0
DICTIONARY
  5
7AE9
330
70B0
100
AcDbDictionary
280
     1
281
     1
  3
ACAD_MTEXT_RT
360
7AF8
  0
DICTIONARY
  5
7AEB
330
7507
100
AcDbDictionary
280
     1
281
     1
  3
ACAD_MTEXT_RT
360
7AF9
  0
DICTIONARY
  5
7AF2
102
{ACAD_REACTORS
330
5F06
102
}
330
5F06
100
AcDbDictionary
281
     1
  3
DIMFXL
350
7AF3
  3
DIMLTEX1
350
7AF5
  3
DIMLTEX2
350
7AF6
  3
DIMLTYPE
350
7AF4
  0
DICTIONARY
  5
5F64
102
{ACAD_REACTORS
330
5F06
102
}
330
5F06
100
AcDbDictionary
281
     1
  0
DICTIONARY
  5
5F07
102
{ACAD_REACTORS
330
5F06
102
}
330
5F06
100
AcDbDictionary
281
     1
  0
DICTIONARY
  5
5F63
102
{ACAD_REACTORS
330
5F06
102
}
330
5F06
100
AcDbDictionary
281
     1
  3
Model
350
5F71
  3
布局1
350
5F6D
  0
DICTIONARY
  5
5F0A
102
{ACAD_REACTORS
330
5F06
102
}
330
5F06
100
AcDbDictionary
281
     1
  3
ByBlock
350
5F13
  3
ByLayer
350
5F0B
  3
Global
350
5F1B
  0
DICTIONARY
  5
5F67
102
{ACAD_REACTORS
330
5F06
102
}
330
5F06
100
AcDbDictionary
281
     1
  3
Standard
350
5F68
  0
DICTIONARY
  5
5F60
102
{ACAD_REACTORS
330
5F06
102
}
330
5F06
100
AcDbDictionary
281
     1
  3
Standard
350
5F61
  0
DICTIONARY
  5
5F62
102
{ACAD_REACTORS
330
5F06
102
}
330
5F06
100
AcDbDictionary
281
     1
  0
ACDBDICTIONARYWDFLT
  5
5F08
102
{ACAD_REACTORS
330
5F06
102
}
330
5F06
100
AcDbDictionary
281
     1
  3
Normal
350
5F09
100
AcDbDictionaryWithDefault
340
5F09
  0
DICTIONARY
  5
5F34
102
{ACAD_REACTORS
330
5F06
102
}
330
5F06
100
AcDbDictionary
281
     1
  3
A0
350
5F35
  3
A1
350
5F36
  3
A2
350
5F37
  3
A3
350
5F38
  3
A4
350
5F39
  3
A5
350
5F3A
  3
A6
350
5F3B
  3
A7
350
5F3C
  3
A8
350
5F3D
  3
A9
350
5F3E
  3
B0
350
5F3F
  3
B1
350
5F40
  3
B2
350
5F41
  3
B3
350
5F42
  3
B4
350
5F43
  3
B5
350
5F44
  3
B6
350
5F45
  3
B7
350
5F46
  3
B8
350
5F47
  3
B9
350
5F48
  3
C0
350
5F49
  3
C1
350
5F4A
  3
C2
350
5F4B
  3
C3
350
5F4C
  3
C4
350
5F4D
  3
C5
350
5F4E
  3
C6
350
5F4F
  3
C7
350
5F50
  3
C8
350
5F51
  3
C9
350
5F52
  3
D0
350
5F53
  3
D1
350
5F54
  3
D2
350
5F55
  0
DICTIONARY
  5
5F65
102
{ACAD_REACTORS
330
5F06
102
}
330
5F06
100
AcDbDictionary
281
     1
  3
Standard
350
5F66
  0
DICTIONARY
  5
5F23
102
{ACAD_REACTORS
330
5F06
102
}
330
5F06
100
AcDbDictionary
281
     1
  3
2dWireframe
350
5F29
  3
3D Hidden
350
5F2B
  3
3dWireframe
350
5F2A
  3
Basic
350
5F28
  3
Brighten
350
5F2F
  3
ColorChange
350
5F33
  3
Conceptual
350
5F2C
  3
Dim
350
5F2E
  3
Facepattern
350
5F32
  3
Flat
350
5F24
  3
FlatWithEdges
350
5F25
  3
Gouraud
350
5F26
  3
GouraudWithEdges
350
5F27
  3
Linepattern
350
5F31
  3
Realistic
350
5F2D
  3
Thicken
350
5F30
  0
XRECORD
  5
74C4
102
{ACAD_REACTORS
330
5F06
102
}
330
5F06
100
AcDbXrecord
280
     1
 90
        1
330
5F66
  0
DICTIONARY
  5
6102
102
{ACAD_REACTORS
330
5F06
102
}
330
5F06
100
AcDbDictionary
281
     1
  3
CANNOSCALE
350
6105
  3
CMLEADERSTYLE
350
6104
  3
CTABLESTYLE
350
6103
  3
DIMASSOC
350
6108
  3
INDEXCTL
350
6107
  3
SORTENTS
350
6106
  0
DICTIONARY
  5
60F2
102
{ACAD_REACTORS
330
5F06
102
}
330
5F06
100
AcDbDictionary
281
     1
  3
lxx_dimth
350
60F3
  0
DICTIONARY
  5
61B8
102
{ACAD_REACTORS
330
61B7
102
}
330
61B7
100
AcDbDictionary
281
     1
  0
XRECORD
  5
60F5
102
{ACAD_REACTORS
330
60F4
102
}
330
60F4
100
AcDbXrecord
280
     1
290
     1
  0
XRECORD
  5
60F7
102
{ACAD_REACTORS
330
60F6
102
}
330
60F6
100
AcDbXrecord
280
     1
290
     1
  0
XRECORD
  5
60F9
102
{ACAD_REACTORS
330
60F8
102
}
330
60F8
100
AcDbXrecord
280
     1
290
     1
  0
XRECORD
  5
60FB
102
{ACAD_REACTORS
330
60FA
102
}
330
60FA
100
AcDbXrecord
280
     1
290
     1
  0
XRECORD
  5
60FD
102
{ACAD_REACTORS
330
60FC
102
}
330
60FC
100
AcDbXrecord
280
     1
290
     1
  0
SORTENTSTABLE
  5
6550
102
{ACAD_REACTORS
330
654F
102
}
330
654F
100
AcDbSortentsTable
330
5F6E
331
7820
  5
7820
331
77E9
  5
77E9
331
7828
  5
7828
331
77B2
  5
77B2
331
77F1
  5
77F1
331
77F9
  5
77F9
331
7830
  5
7830
331
77BA
  5
77BA
331
77C2
  5
77C2
331
7801
  5
7801
331
77CA
  5
77CA
331
7A68
  5
7A68
331
77D2
  5
77D2
331
7811
  5
7811
331
783A
  5
783A
331
7819
  5
7819
331
77E2
  5
77E2
331
7A7A
  5
7A7B
331
77EA
  5
77EA
331
7821
  5
7821
331
77B3
  5
77B3
331
77F2
  5
77F2
331
77BB
  5
77BB
331
77C3
  5
77C3
331
780A
  5
780A
331
77CB
  5
77CB
331
77D3
  5
77D3
331
7812
  5
7812
331
783B
  5
783B
331
7A69
  5
7A6A
331
77DB
  5
77DB
331
781A
  5
781A
331
77E3
  5
77E3
331
7A7B
  5
7A7A
331
795B
  5
795B
331
7822
  5
7822
331
7973
  5
7973
331
77EB
  5
77EB
331
782A
  5
782A
331
77B4
  5
77B4
331
77F3
  5
77F3
331
77FB
  5
77FB
331
7832
  5
7832
331
77BC
  5
77BC
331
77C4
  5
77C4
331
77CC
  5
77CC
331
780B
  5
780B
331
783C
  5
783C
331
77D4
  5
77D4
331
7813
  5
7813
331
781B
  5
781B
331
7844
  5
7844
331
77E4
  5
77E4
331
7A7C
  5
7A7C
331
77EC
  5
77EC
331
7974
  5
7974
331
77AD
  5
77AD
331
77B5
  5
77B5
331
77F4
  5
77F4
331
77BD
  5
77BD
331
79A3
  5
79A3
331
77C5
  5
77C5
331
780C
  5
780C
331
77CD
  5
77CD
331
77D5
  5
77D5
331
7814
  5
7814
331
783D
  5
783D
331
7A6B
  5
7A69
331
781C
  5
781C
331
77E5
  5
77E5
331
77AE
  5
77AE
331
77ED
  5
77ED
331
77F5
  5
77F5
331
782C
  5
782C
331
77B6
  5
77B6
331
7834
  5
7834
331
77BE
  5
77BE
331
77C6
  5
77C6
331
79A4
  5
79A4
331
7A64
  5
7A64
331
77CE
  5
77CE
331
780D
  5
780D
331
7A6C
  5
7A6B
331
783E
  5
783E
331
77D6
  5
77D6
331
7815
  5
7815
331
781D
  5
781D
331
7846
  5
7846
331
77E6
  5
77E6
331
77EE
  5
77EE
331
7825
  5
7825
331
77AF
  5
77AF
331
77B7
  5
77B7
331
782D
  5
782D
331
7835
  5
7835
331
77BF
  5
77BF
331
7806
  5
7806
331
79A5
  5
79A5
331
77C7
  5
77C7
331
780E
  5
780E
331
7A65
  5
7A66
331
77CF
  5
77CF
331
77D7
  5
77D7
331
7816
  5
7816
331
783F
  5
783F
331
7A75
  5
7A75
331
77DF
  5
77DF
331
781E
  5
781E
331
7847
  5
7847
331
77E7
  5
77E7
331
77B0
  5
77B0
331
77EF
  5
77EF
331
782E
  5
782E
331
77B8
  5
77B8
331
7836
  5
7836
331
77C0
  5
77C0
331
7807
  5
7807
331
79A6
  5
79A6
331
77C8
  5
77C8
331
7848
  5
7848
331
7A66
  5
7A65
331
77D0
  5
77D0
331
780F
  5
780F
331
7838
  5
7838
331
7817
  5
7817
331
7840
  5
7840
331
77D8
  5
77D8
331
781F
  5
781F
331
7A76
  5
7A77
331
77E0
  5
77E0
331
7A78
  5
7A78
331
77E8
  5
77E8
331
77B1
  5
77B1
331
77F0
  5
77F0
331
77B9
  5
77B9
331
77F8
  5
77F8
331
782F
  5
782F
331
7837
  5
7837
331
77C1
  5
77C1
331
7800
  5
7800
331
7849
  5
7849
331
77C9
  5
77C9
331
7810
  5
7810
331
7A67
  5
7A67
331
7839
  5
7839
331
77D1
  5
77D1
331
77D9
  5
77D9
331
7818
  5
7818
331
7841
  5
7841
331
7A77
  5
7A76
331
77E1
  5
77E1
331
7A79
  5
7A79
  0
XRECORD
  5
7AF8
102
{ACAD_REACTORS
330
7AE9
102
}
330
7AE9
100
AcDbXrecord
280
     1
 40
5344.0
  1
\A1;86°
  0
XRECORD
  5
7AF9
102
{ACAD_REACTORS
330
7AEB
102
}
330
7AEB
100
AcDbXrecord
280
     1
 40
5344.0
  1
\A1;86°
  0
XRECORD
  5
7AF3
102
{ACAD_REACTORS
330
7AF2
102
}
330
7AF2
100
AcDbXrecord
280
     1
 40
8.0
  0
XRECORD
  5
7AF5
102
{ACAD_REACTORS
330
7AF2
102
}
330
7AF2
100
AcDbXrecord
280
     1
340
5F5E
  0
XRECORD
  5
7AF6
102
{ACAD_REACTORS
330
7AF2
102
}
330
7AF2
100
AcDbXrecord
280
     1
340
5F5E
  0
XRECORD
  5
7AF4
102
{ACAD_REACTORS
330
7AF2
102
}
330
7AF2
100
AcDbXrecord
280
     1
340
5F5E
  0
LAYOUT
  5
5F71
102
{ACAD_REACTORS
330
5F63
102
}
330
5F63
100
AcDbPlotSettings
  1

  2
\\192.168.1.64\Canon LBP2900
  4
A4
  6

 40
5.873749732971191
 41
6.805061340332031
 42
5.873748779296875
 43
4.857757568359375
 44
209.9733276367186
 45
296.9259948730469
 46
0.0
 47
0.0
 48
0.0
 49
0.0
140
0.0
141
0.0
142
1.0
143
18.8066679312288
 70
 11952
 72
     0
 73
     1
 74
     0
  7

 75
     0
147
0.0531726302424622
 76
     0
 77
     2
 78
   300
148
-25731.24868592401
149
-1932.700854958878
100
AcDbLayout
  1
Model
 70
     1
 71
     0
 10
0.0
 20
0.0
 11
12.0
 21
9.0
 12
0.0
 22
0.0
 32
0.0
 14
0.0
 24
0.0
 34
0.0
 15
0.0
 25
0.0
 35
0.0
146
0.0
 13
0.0
 23
0.0
 33
0.0
 16
1.0
 26
0.0
 36
0.0
 17
0.0
 27
1.0
 37
0.0
 76
     0
330
5F6E
331
5F73
1001
ACAD_PSEXT
1000
\\192.168.1.64\Canon LBP2900
1000
Canon LBP2900
1000
\\192.168.1.64
1000

1070
     0
  0
LAYOUT
  5
5F6D
102
{ACAD_REACTORS
330
5F63
102
}
330
5F63
100
AcDbPlotSettings
  1

  2
\\192.168.1.64\Canon LBP2900
  4

  6

 40
0.0
 41
0.0
 42
0.0
 43
0.0
 44
0.0
 45
0.0
 46
0.0
 47
0.0
 48
0.0
 49
0.0
140
0.0
141
0.0
142
1.0
143
1.0
 70
   688
 72
     0
 73
     0
 74
     5
  7

 75
    16
147
1.0
 76
     0
 77
     2
 78
   300
148
0.0
149
0.0
100
AcDbLayout
  1
布局1
 70
     1
 71
     1
 10
0.0
 20
0.0
 11
12.0
 21
9.0
 12
0.0
 22
0.0
 32
0.0
 14
1.000000000000000E+20
 24
1.000000000000000E+20
 34
1.000000000000000E+20
 15
-1.000000000000000E+20
 25
-1.000000000000000E+20
 35
-1.000000000000000E+20
146
0.0
 13
0.0
 23
0.0
 33
0.0
 16
1.0
 26
0.0
 36
0.0
 17
0.0
 27
1.0
 37
0.0
 76
     0
330
5F6A
  0
MATERIAL
  5
5F13
102
{ACAD_XDICTIONARY
360
5F14
102
}
102
{ACAD_REACTORS
330
5F0A
102
}
330
5F0A
100
AcDbMaterial
  1
ByBlock
 72
     0
 43
0.0208333333333333
 43
0.0
 43
0.0
 43
0.0
 43
0.0
 43
0.0208333333333333
 43
0.0
 43
0.0
 43
0.0
 43
0.0
 43
1.0
 43
0.0
 43
0.0
 43
0.0
 43
0.0
 43
1.0
 77
     0
 47
0.0208333333333333
 47
0.0
 47
0.0
 47
0.0
 47
0.0
 47
0.0208333333333333
 47
0.0
 47
0.0
 47
0.0
 47
0.0
 47
1.0
 47
0.0
 47
0.0
 47
0.0
 47
0.0
 47
1.0
171
     0
 49
0.0208333333333333
 49
0.0
 49
0.0
 49
0.0
 49
0.0
 49
0.0208333333333333
 49
0.0
 49
0.0
 49
0.0
 49
0.0
 49
1.0
 49
0.0
 49
0.0
 49
0.0
 49
0.0
 49
1.0
175
     0
142
0.0208333333333333
142
0.0
142
0.0
142
0.0
142
0.0
142
0.0208333333333333
142
0.0
142
0.0
142
0.0
142
0.0
142
1.0
142
0.0
142
0.0
142
0.0
142
0.0
142
1.0
179
     0
144
0.0208333333333333
144
0.0
144
0.0
144
0.0
144
0.0
144
0.0208333333333333
144
0.0
144
0.0
144
0.0
144
0.0
144
1.0
144
0.0
144
0.0
144
0.0
144
0.0
144
1.0
147
0.0208333333333333
147
0.0
147
0.0
147
0.0
147
0.0
147
0.0208333333333333
147
0.0
147
0.0
147
0.0
147
0.0
147
1.0
147
0.0
147
0.0
147
0.0
147
0.0
147
1.0
  0
MATERIAL
  5
5F0B
102
{ACAD_XDICTIONARY
360
5F0C
102
}
102
{ACAD_REACTORS
330
5F0A
102
}
330
5F0A
100
AcDbMaterial
  1
ByLayer
 72
     0
 43
0.0208333333333333
 43
0.0
 43
0.0
 43
0.0
 43
0.0
 43
0.0208333333333333
 43
0.0
 43
0.0
 43
0.0
 43
0.0
 43
1.0
 43
0.0
 43
0.0
 43
0.0
 43
0.0
 43
1.0
 77
     0
 47
0.0208333333333333
 47
0.0
 47
0.0
 47
0.0
 47
0.0
 47
0.0208333333333333
 47
0.0
 47
0.0
 47
0.0
 47
0.0
 47
1.0
 47
0.0
 47
0.0
 47
0.0
 47
0.0
 47
1.0
171
     0
 49
0.0208333333333333
 49
0.0
 49
0.0
 49
0.0
 49
0.0
 49
0.0208333333333333
 49
0.0
 49
0.0
 49
0.0
 49
0.0
 49
1.0
 49
0.0
 49
0.0
 49
0.0
 49
0.0
 49
1.0
175
     0
142
0.0208333333333333
142
0.0
142
0.0
142
0.0
142
0.0
142
0.0208333333333333
142
0.0
142
0.0
142
0.0
142
0.0
142
1.0
142
0.0
142
0.0
142
0.0
142
0.0
142
1.0
179
     0
144
0.0208333333333333
144
0.0
144
0.0
144
0.0
144
0.0
144
0.0208333333333333
144
0.0
144
0.0
144
0.0
144
0.0
144
1.0
144
0.0
144
0.0
144
0.0
144
0.0
144
1.0
147
0.0208333333333333
147
0.0
147
0.0
147
0.0
147
0.0
147
0.0208333333333333
147
0.0
147
0.0
147
0.0
147
0.0
147
1.0
147
0.0
147
0.0
147
0.0
147
0.0
147
1.0
  0
MATERIAL
  5
5F1B
102
{ACAD_XDICTIONARY
360
5F1C
102
}
102
{ACAD_REACTORS
330
5F0A
102
}
330
5F0A
100
AcDbMaterial
  1
Global
 72
     0
 43
0.0208333333333333
 43
0.0
 43
0.0
 43
0.0
 43
0.0
 43
0.0208333333333333
 43
0.0
 43
0.0
 43
0.0
 43
0.0
 43
1.0
 43
0.0
 43
0.0
 43
0.0
 43
0.0
 43
1.0
 77
     0
 47
0.0208333333333333
 47
0.0
 47
0.0
 47
0.0
 47
0.0
 47
0.0208333333333333
 47
0.0
 47
0.0
 47
0.0
 47
0.0
 47
1.0
 47
0.0
 47
0.0
 47
0.0
 47
0.0
 47
1.0
171
     0
 49
0.0208333333333333
 49
0.0
 49
0.0
 49
0.0
 49
0.0
 49
0.0208333333333333
 49
0.0
 49
0.0
 49
0.0
 49
0.0
 49
1.0
 49
0.0
 49
0.0
 49
0.0
 49
0.0
 49
1.0
175
     0
142
0.0208333333333333
142
0.0
142
0.0
142
0.0
142
0.0
142
0.0208333333333333
142
0.0
142
0.0
142
0.0
142
0.0
142
1.0
142
0.0
142
0.0
142
0.0
142
0.0
142
1.0
179
     0
144
0.0208333333333333
144
0.0
144
0.0
144
0.0
144
0.0
144
0.0208333333333333
144
0.0
144
0.0
144
0.0
144
0.0
144
1.0
144
0.0
144
0.0
144
0.0
144
0.0
144
1.0
147
0.0208333333333333
147
0.0
147
0.0
147
0.0
147
0.0
147
0.0208333333333333
147
0.0
147
0.0
147
0.0
147
0.0
147
1.0
147
0.0
147
0.0
147
0.0
147
0.0
147
1.0
  0
ACAD_PROXY_OBJECT
  5
5F68
102
{ACAD_REACTORS
330
5F67
102
}
330
5F67
100
AcDbProxyObject
 90
      499
 91
      505
 95
  1310743
 70
     1
100
AcDbMLeaderStyle
170
     2
171
     1
172
     0
 90
        2
 40
0.0
 41
0.0
173
     1
 91
-1056964608
340
5F5C
 92
       -2
290
     1
 42
0.09
291
     1
 43
0.36
  3
Standard
 44
0.18
300

342
5F57
174
     1
178
     6
175
     1
176
     0
 93
-1056964608
 45
0.18
292
     0
297
     0
 46
0.18
 94
-1056964608
 47
1.0
 49
1.0
140
1.0
293
     1
141
0.0
294
     1
177
     0
142
1.0
295
     0
296
     0
143
0.125
1001
ACAD_MLEADERVER
1070
     2
  0
MLINESTYLE
  5
5F61
102
{ACAD_REACTORS
330
5F60
102
}
330
5F60
100
AcDbMlineStyle
  2
STANDARD
 70
     0
  3

 62
   256
 51
90.0
 52
90.0
 71
     2
 49
0.5
 62
   256
  6
BYLAYER
 49
-0.5
 62
   256
  6
BYLAYER
  0
ACDBPLACEHOLDER
  5
5F09
102
{ACAD_REACTORS
330
5F08
102
}
330
5F08
  0
ACAD_PROXY_OBJECT
  5
5F35
102
{ACAD_REACTORS
330
5F34
102
}
330
5F34
100
AcDbProxyObject
 90
      499
 91
      503
 95
  1310743
 70
     1
100
AcDbScale
 70
     0
300
1:1
140
1.0
141
1.0
290
     1
  0
ACAD_PROXY_OBJECT
  5
5F36
102
{ACAD_REACTORS
330
5F34
102
}
330
5F34
100
AcDbProxyObject
 90
      499
 91
      503
 95
  1310743
 70
     1
100
AcDbScale
 70
     0
300
1:2
140
1.0
141
2.0
290
     0
  0
ACAD_PROXY_OBJECT
  5
5F37
102
{ACAD_REACTORS
330
5F34
102
}
330
5F34
100
AcDbProxyObject
 90
      499
 91
      503
 95
  1310743
 70
     1
100
AcDbScale
 70
     0
300
1:4
140
1.0
141
4.0
290
     0
  0
ACAD_PROXY_OBJECT
  5
5F38
102
{ACAD_REACTORS
330
5F34
102
}
330
5F34
100
AcDbProxyObject
 90
      499
 91
      503
 95
  1310743
 70
     1
100
AcDbScale
 70
     0
300
1:5
140
1.0
141
5.0
290
     0
  0
ACAD_PROXY_OBJECT
  5
5F39
102
{ACAD_REACTORS
330
5F34
102
}
330
5F34
100
AcDbProxyObject
 90
      499
 91
      503
 95
  1310743
 70
     1
100
AcDbScale
 70
     0
300
1:8
140
1.0
141
8.0
290
     0
  0
ACAD_PROXY_OBJECT
  5
5F3A
102
{ACAD_REACTORS
330
5F34
102
}
330
5F34
100
AcDbProxyObject
 90
      499
 91
      503
 95
  1310743
 70
     1
100
AcDbScale
 70
     0
300
1:10
140
1.0
141
10.0
290
     0
  0
ACAD_PROXY_OBJECT
  5
5F3B
102
{ACAD_REACTORS
330
5F34
102
}
330
5F34
100
AcDbProxyObject
 90
      499
 91
      503
 95
  1310743
 70
     1
100
AcDbScale
 70
     0
300
1:16
140
1.0
141
16.0
290
     0
  0
ACAD_PROXY_OBJECT
  5
5F3C
102
{ACAD_REACTORS
330
5F34
102
}
330
5F34
100
AcDbProxyObject
 90
      499
 91
      503
 95
  1310743
 70
     1
100
AcDbScale
 70
     0
300
1:20
140
1.0
141
20.0
290
     0
  0
ACAD_PROXY_OBJECT
  5
5F3D
102
{ACAD_REACTORS
330
5F34
102
}
330
5F34
100
AcDbProxyObject
 90
      499
 91
      503
 95
  1310743
 70
     1
100
AcDbScale
 70
     0
300
1:30
140
1.0
141
30.0
290
     0
  0
ACAD_PROXY_OBJECT
  5
5F3E
102
{ACAD_REACTORS
330
5F34
102
}
330
5F34
100
AcDbProxyObject
 90
      499
 91
      503
 95
  1310743
 70
     1
100
AcDbScale
 70
     0
300
1:40
140
1.0
141
40.0
290
     0
  0
ACAD_PROXY_OBJECT
  5
5F3F
102
{ACAD_REACTORS
330
5F34
102
}
330
5F34
100
AcDbProxyObject
 90
      499
 91
      503
 95
  1310743
 70
     1
100
AcDbScale
 70
     0
300
1:50
140
1.0
141
50.0
290
     0
  0
ACAD_PROXY_OBJECT
  5
5F40
102
{ACAD_REACTORS
330
5F34
102
}
330
5F34
100
AcDbProxyObject
 90
      499
 91
      503
 95
  1310743
 70
     1
100
AcDbScale
 70
     0
300
1:100
140
1.0
141
100.0
290
     0
  0
ACAD_PROXY_OBJECT
  5
5F41
102
{ACAD_REACTORS
330
5F34
102
}
330
5F34
100
AcDbProxyObject
 90
      499
 91
      503
 95
  1310743
 70
     1
100
AcDbScale
 70
     0
300
2:1
140
2.0
141
1.0
290
     0
  0
ACAD_PROXY_OBJECT
  5
5F42
102
{ACAD_REACTORS
330
5F34
102
}
330
5F34
100
AcDbProxyObject
 90
      499
 91
      503
 95
  1310743
 70
     1
100
AcDbScale
 70
     0
300
4:1
140
4.0
141
1.0
290
     0
  0
ACAD_PROXY_OBJECT
  5
5F43
102
{ACAD_REACTORS
330
5F34
102
}
330
5F34
100
AcDbProxyObject
 90
      499
 91
      503
 95
  1310743
 70
     1
100
AcDbScale
 70
     0
300
8:1
140
8.0
141
1.0
290
     0
  0
ACAD_PROXY_OBJECT
  5
5F44
102
{ACAD_REACTORS
330
5F34
102
}
330
5F34
100
AcDbProxyObject
 90
      499
 91
      503
 95
  1310743
 70
     1
100
AcDbScale
 70
     0
300
10:1
140
10.0
141
1.0
290
     0
  0
ACAD_PROXY_OBJECT
  5
5F45
102
{ACAD_REACTORS
330
5F34
102
}
330
5F34
100
AcDbProxyObject
 90
      499
 91
      503
 95
  1310743
 70
     1
100
AcDbScale
 70
     0
300
100:1
140
100.0
141
1.0
290
     0
  0
ACAD_PROXY_OBJECT
  5
5F46
102
{ACAD_REACTORS
330
5F34
102
}
330
5F34
100
AcDbProxyObject
 90
      499
 91
      503
 95
  1310743
 70
     1
100
AcDbScale
 70
     0
300
1/128" = 1'-0"
140
0.0078125
141
12.0
290
     0
  0
ACAD_PROXY_OBJECT
  5
5F47
102
{ACAD_REACTORS
330
5F34
102
}
330
5F34
100
AcDbProxyObject
 90
      499
 91
      503
 95
  1310743
 70
     1
100
AcDbScale
 70
     0
300
1/64" = 1'-0"
140
0.015625
141
12.0
290
     0
  0
ACAD_PROXY_OBJECT
  5
5F48
102
{ACAD_REACTORS
330
5F34
102
}
330
5F34
100
AcDbProxyObject
 90
      499
 91
      503
 95
  1310743
 70
     1
100
AcDbScale
 70
     0
300
1/32" = 1'-0"
140
0.03125
141
12.0
290
     0
  0
ACAD_PROXY_OBJECT
  5
5F49
102
{ACAD_REACTORS
330
5F34
102
}
330
5F34
100
AcDbProxyObject
 90
      499
 91
      503
 95
  1310743
 70
     1
100
AcDbScale
 70
     0
300
1/16" = 1'-0"
140
0.0625
141
12.0
290
     0
  0
ACAD_PROXY_OBJECT
  5
5F4A
102
{ACAD_REACTORS
330
5F34
102
}
330
5F34
100
AcDbProxyObject
 90
      499
 91
      503
 95
  1310743
 70
     1
100
AcDbScale
 70
     0
300
3/32" = 1'-0"
140
0.09375
141
12.0
290
     0
  0
ACAD_PROXY_OBJECT
  5
5F4B
102
{ACAD_REACTORS
330
5F34
102
}
330
5F34
100
AcDbProxyObject
 90
      499
 91
      503
 95
  1310743
 70
     1
100
AcDbScale
 70
     0
300
1/8" = 1'-0"
140
0.125
141
12.0
290
     0
  0
ACAD_PROXY_OBJECT
  5
5F4C
102
{ACAD_REACTORS
330
5F34
102
}
330
5F34
100
AcDbProxyObject
 90
      499
 91
      503
 95
  1310743
 70
     1
100
AcDbScale
 70
     0
300
3/16" = 1'-0"
140
0.1875
141
12.0
290
     0
  0
ACAD_PROXY_OBJECT
  5
5F4D
102
{ACAD_REACTORS
330
5F34
102
}
330
5F34
100
AcDbProxyObject
 90
      499
 91
      503
 95
  1310743
 70
     1
100
AcDbScale
 70
     0
300
1/4" = 1'-0"
140
0.25
141
12.0
290
     0
  0
ACAD_PROXY_OBJECT
  5
5F4E
102
{ACAD_REACTORS
330
5F34
102
}
330
5F34
100
AcDbProxyObject
 90
      499
 91
      503
 95
  1310743
 70
     1
100
AcDbScale
 70
     0
300
3/8" = 1'-0"
140
0.375
141
12.0
290
     0
  0
ACAD_PROXY_OBJECT
  5
5F4F
102
{ACAD_REACTORS
330
5F34
102
}
330
5F34
100
AcDbProxyObject
 90
      499
 91
      503
 95
  1310743
 70
     1
100
AcDbScale
 70
     0
300
1/2" = 1'-0"
140
0.5
141
12.0
290
     0
  0
ACAD_PROXY_OBJECT
  5
5F50
102
{ACAD_REACTORS
330
5F34
102
}
330
5F34
100
AcDbProxyObject
 90
      499
 91
      503
 95
  1310743
 70
     1
100
AcDbScale
 70
     0
300
3/4" = 1'-0"
140
0.75
141
12.0
290
     0
  0
ACAD_PROXY_OBJECT
  5
5F51
102
{ACAD_REACTORS
330
5F34
102
}
330
5F34
100
AcDbProxyObject
 90
      499
 91
      503
 95
  1310743
 70
     1
100
AcDbScale
 70
     0
300
1" = 1'-0"
140
1.0
141
12.0
290
     0
  0
ACAD_PROXY_OBJECT
  5
5F52
102
{ACAD_REACTORS
330
5F34
102
}
330
5F34
100
AcDbProxyObject
 90
      499
 91
      503
 95
  1310743
 70
     1
100
AcDbScale
 70
     0
300
1-1/2" = 1'-0"
140
1.5
141
12.0
290
     0
  0
ACAD_PROXY_OBJECT
  5
5F53
102
{ACAD_REACTORS
330
5F34
102
}
330
5F34
100
AcDbProxyObject
 90
      499
 91
      503
 95
  1310743
 70
     1
100
AcDbScale
 70
     0
300
3" = 1'-0"
140
3.0
141
12.0
290
     0
  0
ACAD_PROXY_OBJECT
  5
5F54
102
{ACAD_REACTORS
330
5F34
102
}
330
5F34
100
AcDbProxyObject
 90
      499
 91
      503
 95
  1310743
 70
     1
100
AcDbScale
 70
     0
300
6" = 1'-0"
140
6.0
141
12.0
290
     0
  0
ACAD_PROXY_OBJECT
  5
5F55
102
{ACAD_REACTORS
330
5F34
102
}
330
5F34
100
AcDbProxyObject
 90
      499
 91
      503
 95
  1310743
 70
     1
100
AcDbScale
 70
     0
300
1'-0" = 1'-0"
140
12.0
141
12.0
290
     0
  0
TABLESTYLE
  5
5F66
102
{ACAD_XDICTIONARY
360
74C2
102
}
102
{ACAD_REACTORS
330
5F65
102
}
330
5F65
100
AcDbTableStyle
  3
Standard
 70
     0
 71
     0
 40
0.06
 41
0.06
280
     0
281
     0
  7
STANDARD
140
0.18
170
     2
 62
     0
 63
     7
283
     0
274
    -2
284
     1
 64
     0
275
    -2
285
     1
 65
     0
276
    -2
286
     1
 66
     0
277
    -2
287
     1
 67
     0
278
    -2
288
     1
 68
     0
279
    -2
289
     1
 69
     0
  7
STANDARD
140
0.25
170
     5
 62
     0
 63
     7
283
     0
274
    -2
284
     1
 64
     0
275
    -2
285
     1
 65
     0
276
    -2
286
     1
 66
     0
277
    -2
287
     1
 67
     0
278
    -2
288
     1
 68
     0
279
    -2
289
     1
 69
     0
  7
STANDARD
140
0.18
170
     5
 62
     0
 63
     7
283
     0
274
    -2
284
     1
 64
     0
275
    -2
285
     1
 65
     0
276
    -2
286
     1
 66
     0
277
    -2
287
     1
 67
     0
278
    -2
288
     1
 68
     0
279
    -2
289
     1
 69
     0
  0
VISUALSTYLE
  5
5F29
102
{ACAD_REACTORS
330
5F23
102
}
330
5F23
100
AcDbVisualStyle
  2
2dWireframe
 70
     4
 71
     0
 72
     2
 73
     0
 90
        0
 40
-0.6
 41
-30.0
 62
     5
 63
     7
 74
     1
 91
        4
 64
     7
 65
   257
 75
     1
175
     1
 42
1.0
 92
        0
 66
   257
 43
1.0
 76
     1
 77
     6
 78
     2
 67
     7
 79
     5
170
     0
171
     0
290
     0
174
     0
 93
        1
 44
0.0
173
     0
291
     0
 45
0.0
1001
ACAD
1000
AcDbSavedByObjectVersion
1070
     0
1000
AcDbSavedByObjectVersion
1070
     0
1000
AcDbSavedByObjectVersion
1070
     0
1000
AcDbSavedByObjectVersion
1070
     0
1000
AcDbSavedByObjectVersion
1070
     0
  0
VISUALSTYLE
  5
5F2B
102
{ACAD_REACTORS
330
5F23
102
}
330
5F23
100
AcDbVisualStyle
  2
3D Hidden
 70
     6
 71
     1
 72
     2
 73
     2
 90
        0
 40
-0.6
 41
-30.0
 62
     5
 63
     7
 74
     2
 91
        2
 64
     7
 65
   257
 75
     2
175
     1
 42
40.0
 92
        0
 66
   257
 43
1.0
 76
     1
 77
     6
 78
     2
 67
     7
 79
     3
170
     0
171
     0
290
     0
174
     0
 93
        1
 44
0.0
173
     0
291
     0
 45
0.0
1001
ACAD
1000
AcDbSavedByObjectVersion
1070
     0
1000
AcDbSavedByObjectVersion
1070
     0
1000
AcDbSavedByObjectVersion
1070
     0
1000
AcDbSavedByObjectVersion
1070
     0
1000
AcDbSavedByObjectVersion
1070
     0
  0
VISUALSTYLE
  5
5F2A
102
{ACAD_REACTORS
330
5F23
102
}
330
5F23
100
AcDbVisualStyle
  2
3dWireframe
 70
     5
 71
     0
 72
     2
 73
     0
 90
        0
 40
-0.6
 41
-30.0
 62
     5
 63
     7
 74
     1
 91
        4
 64
     7
 65
   257
 75
     1
175
     1
 42
1.0
 92
        0
 66
   257
 43
1.0
 76
     1
 77
     6
 78
     2
 67
     7
 79
     5
170
     0
171
     0
290
     0
174
     0
 93
        1
 44
0.0
173
     0
291
     0
 45
0.0
1001
ACAD
1000
AcDbSavedByObjectVersion
1070
     0
1000
AcDbSavedByObjectVersion
1070
     0
1000
AcDbSavedByObjectVersion
1070
     0
1000
AcDbSavedByObjectVersion
1070
     0
1000
AcDbSavedByObjectVersion
1070
     0
  0
VISUALSTYLE
  5
5F28
102
{ACAD_REACTORS
330
5F23
102
}
330
5F23
100
AcDbVisualStyle
  2
Basic
 70
     7
 71
     1
 72
     0
 73
     1
 90
        0
 40
-0.6
 41
-30.0
 62
     5
 63
     7
 74
     0
 91
        4
 64
     7
 65
   257
 75
     1
175
     1
 42
1.0
 92
        8
 66
     7
 43
1.0
 76
     1
 77
     6
 78
     2
 67
     7
 79
     5
170
     0
171
     0
290
     0
174
     0
 93
        1
 44
0.0
173
     0
291
     1
 45
0.0
1001
ACAD
1000
AcDbSavedByObjectVersion
1070
     0
1000
AcDbSavedByObjectVersion
1070
     0
1000
AcDbSavedByObjectVersion
1070
     0
1000
AcDbSavedByObjectVersion
1070
     0
1000
AcDbSavedByObjectVersion
1070
     0
  0
VISUALSTYLE
  5
5F2F
102
{ACAD_REACTORS
330
5F23
102
}
330
5F23
100
AcDbVisualStyle
  2
Brighten
 70
    12
 71
     2
 72
     2
 73
     0
 90
        0
 40
-0.6
 41
-30.0
 62
     5
 63
     7
 74
     1
 91
        4
 64
     7
 65
   257
 75
     1
175
     1
 42
1.0
 92
        8
 66
     7
 43
1.0
 76
     1
 77
     6
 78
     2
 67
     7
 79
     5
170
     0
171
     0
290
     0
174
     0
 93
        1
 44
50.0
173
     0
291
     1
 45
0.0
1001
ACAD
1000
AcDbSavedByObjectVersion
1070
     0
1000
AcDbSavedByObjectVersion
1070
     0
1000
AcDbSavedByObjectVersion
1070
     0
1000
AcDbSavedByObjectVersion
1070
     0
1000
AcDbSavedByObjectVersion
1070
     0
  0
VISUALSTYLE
  5
5F33
102
{ACAD_REACTORS
330
5F23
102
}
330
5F23
100
AcDbVisualStyle
  2
ColorChange
 70
    16
 71
     2
 72
     2
 73
     3
 90
        0
 40
-0.6
 41
-30.0
 62
     5
 63
     8
 74
     1
 91
        4
 64
     7
 65
   257
 75
     1
175
     1
 42
1.0
 92
        8
 66
     8
 43
1.0
 76
     1
 77
     6
 78
     2
 67
     7
 79
     5
170
     0
171
     0
290
     0
174
     0
 93
        1
 44
0.0
173
     0
291
     1
 45
0.0
1001
ACAD
1000
AcDbSavedByObjectVersion
1070
     0
1000
AcDbSavedByObjectVersion
1070
     0
1000
AcDbSavedByObjectVersion
1070
     0
1000
AcDbSavedByObjectVersion
1070
     0
1000
AcDbSavedByObjectVersion
1070
     0
  0
VISUALSTYLE
  5
5F2C
102
{ACAD_REACTORS
330
5F23
102
}
330
5F23
100
AcDbVisualStyle
  2
Conceptual
 70
     9
 71
     3
 72
     2
 73
     0
 90
        0
 40
-0.6
 41
-30.0
 62
     5
 63
     7
 74
     2
 91
        2
 64
     7
 65
   257
 75
     1
175
     1
 42
40.0
 92
        8
 66
     7
 43
1.0
 76
     1
 77
     6
 78
     2
 67
     7
 79
     3
170
     0
171
     0
290
     0
174
     0
 93
        1
 44
0.0
173
     0
291
     0
 45
0.0
1001
ACAD
1000
AcDbSavedByObjectVersion
1070
     0
1000
AcDbSavedByObjectVersion
1070
     0
1000
AcDbSavedByObjectVersion
1070
     0
1000
AcDbSavedByObjectVersion
1070
     0
1000
AcDbSavedByObjectVersion
1070
     0
  0
VISUALSTYLE
  5
5F2E
102
{ACAD_REACTORS
330
5F23
102
}
330
5F23
100
AcDbVisualStyle
  2
Dim
 70
    11
 71
     2
 72
     2
 73
     0
 90
        0
 40
-0.6
 41
-30.0
 62
     5
 63
     7
 74
     1
 91
        4
 64
     7
 65
   257
 75
     1
175
     1
 42
1.0
 92
        8
 66
     7
 43
1.0
 76
     1
 77
     6
 78
     2
 67
     7
 79
     5
170
     0
171
     0
290
     0
174
     0
 93
        1
 44
-50.0
173
     0
291
     1
 45
0.0
1001
ACAD
1000
AcDbSavedByObjectVersion
1070
     0
1000
AcDbSavedByObjectVersion
1070
     0
1000
AcDbSavedByObjectVersion
1070
     0
1000
AcDbSavedByObjectVersion
1070
     0
1000
AcDbSavedByObjectVersion
1070
     0
  0
VISUALSTYLE
  5
5F32
102
{ACAD_REACTORS
330
5F23
102
}
330
5F23
100
AcDbVisualStyle
  2
Facepattern
 70
    15
 71
     2
 72
     2
 73
     0
 90
        0
 40
-0.6
 41
-30.0
 62
     5
 63
     7
 74
     1
 91
        4
 64
     7
 65
   257
 75
     1
175
     1
 42
1.0
 92
        8
 66
     7
 43
1.0
 76
     1
 77
     6
 78
     2
 67
     7
 79
     5
170
     0
171
     0
290
     0
174
     0
 93
        1
 44
0.0
173
     0
291
     1
 45
0.0
1001
ACAD
1000
AcDbSavedByObjectVersion
1070
     0
1000
AcDbSavedByObjectVersion
1070
     0
1000
AcDbSavedByObjectVersion
1070
     0
1000
AcDbSavedByObjectVersion
1070
     0
1000
AcDbSavedByObjectVersion
1070
     0
  0
VISUALSTYLE
  5
5F24
102
{ACAD_REACTORS
330
5F23
102
}
330
5F23
100
AcDbVisualStyle
  2
Flat
 70
     0
 71
     2
 72
     1
 73
     1
 90
        2
 40
-0.6
 41
30.0
 62
     5
 63
     7
 74
     0
 91
        4
 64
     7
 65
   257
 75
     1
175
     1
 42
1.0
 92
        8
 66
     7
 43
1.0
 76
     1
 77
     6
 78
     2
 67
     7
 79
     5
170
     0
171
     0
290
     0
174
     0
 93
       13
 44
0.0
173
     0
291
     1
 45
0.0
1001
ACAD
1000
AcDbSavedByObjectVersion
1070
     0
1000
AcDbSavedByObjectVersion
1070
     0
1000
AcDbSavedByObjectVersion
1070
     0
1000
AcDbSavedByObjectVersion
1070
     0
1000
AcDbSavedByObjectVersion
1070
     0
  0
VISUALSTYLE
  5
5F25
102
{ACAD_REACTORS
330
5F23
102
}
330
5F23
100
AcDbVisualStyle
  2
FlatWithEdges
 70
     1
 71
     2
 72
     1
 73
     1
 90
        2
 40
-0.6
 41
30.0
 62
     5
 63
     7
 74
     1
 91
        4
 64
     7
 65
   257
 75
     1
175
     1
 42
1.0
 92
        0
 66
   257
 43
1.0
 76
     1
 77
     6
 78
     2
 67
     7
 79
     5
170
     0
171
     0
290
     0
174
     0
 93
       13
 44
0.0
173
     0
291
     1
 45
0.0
1001
ACAD
1000
AcDbSavedByObjectVersion
1070
     0
1000
AcDbSavedByObjectVersion
1070
     0
1000
AcDbSavedByObjectVersion
1070
     0
1000
AcDbSavedByObjectVersion
1070
     0
1000
AcDbSavedByObjectVersion
1070
     0
  0
VISUALSTYLE
  5
5F26
102
{ACAD_REACTORS
330
5F23
102
}
330
5F23
100
AcDbVisualStyle
  2
Gouraud
 70
     2
 71
     2
 72
     2
 73
     1
 90
        2
 40
-0.6
 41
30.0
 62
     5
 63
     7
 74
     0
 91
        4
 64
     7
 65
   257
 75
     1
175
     1
 42
1.0
 92
        0
 66
     7
 43
1.0
 76
     1
 77
     6
 78
     2
 67
     7
 79
     5
170
     0
171
     0
290
     0
174
     0
 93
       13
 44
0.0
173
     0
291
     1
 45
0.0
1001
ACAD
1000
AcDbSavedByObjectVersion
1070
     0
1000
AcDbSavedByObjectVersion
1070
     0
1000
AcDbSavedByObjectVersion
1070
     0
1000
AcDbSavedByObjectVersion
1070
     0
1000
AcDbSavedByObjectVersion
1070
     0
  0
VISUALSTYLE
  5
5F27
102
{ACAD_REACTORS
330
5F23
102
}
330
5F23
100
AcDbVisualStyle
  2
GouraudWithEdges
 70
     3
 71
     2
 72
     2
 73
     1
 90
        2
 40
-0.6
 41
30.0
 62
     5
 63
     7
 74
     1
 91
        4
 64
     7
 65
   257
 75
     1
175
     1
 42
1.0
 92
        0
 66
   257
 43
1.0
 76
     1
 77
     6
 78
     2
 67
     7
 79
     5
170
     0
171
     0
290
     0
174
     0
 93
       13
 44
0.0
173
     0
291
     1
 45
0.0
1001
ACAD
1000
AcDbSavedByObjectVersion
1070
     0
1000
AcDbSavedByObjectVersion
1070
     0
1000
AcDbSavedByObjectVersion
1070
     0
1000
AcDbSavedByObjectVersion
1070
     0
1000
AcDbSavedByObjectVersion
1070
     0
  0
VISUALSTYLE
  5
5F31
102
{ACAD_REACTORS
330
5F23
102
}
330
5F23
100
AcDbVisualStyle
  2
Linepattern
 70
    14
 71
     2
 72
     2
 73
     0
 90
        0
 40
-0.6
 41
-30.0
 62
     5
 63
     7
 74
     1
 91
        4
 64
     7
 65
   257
 75
     7
175
     7
 42
1.0
 92
        8
 66
     7
 43
1.0
 76
     1
 77
     6
 78
     2
 67
     7
 79
     5
170
     0
171
     0
290
     0
174
     0
 93
        1
 44
0.0
173
     0
291
     1
 45
0.0
1001
ACAD
1000
AcDbSavedByObjectVersion
1070
     0
1000
AcDbSavedByObjectVersion
1070
     0
1000
AcDbSavedByObjectVersion
1070
     0
1000
AcDbSavedByObjectVersion
1070
     0
1000
AcDbSavedByObjectVersion
1070
     0
  0
VISUALSTYLE
  5
5F2D
102
{ACAD_REACTORS
330
5F23
102
}
330
5F23
100
AcDbVisualStyle
  2
Realistic
 70
     8
 71
     2
 72
     2
 73
     0
 90
        0
 40
-0.6
 41
-30.0
 62
     5
 63
     7
 74
     1
 91
        0
 64
     7
 65
   257
 75
     1
175
     1
 42
1.0
 92
        8
 66
     8
 43
1.0
 76
     1
 77
     6
 78
     2
 67
     7
 79
     5
170
     0
171
     0
290
     0
174
     0
 93
       13
 44
0.0
173
     0
291
     0
 45
0.0
1001
ACAD
1000
AcDbSavedByObjectVersion
1070
     0
1000
AcDbSavedByObjectVersion
1070
     0
1000
AcDbSavedByObjectVersion
1070
     0
1000
AcDbSavedByObjectVersion
1070
     0
1000
AcDbSavedByObjectVersion
1070
     0
  0
VISUALSTYLE
  5
5F30
102
{ACAD_REACTORS
330
5F23
102
}
330
5F23
100
AcDbVisualStyle
  2
Thicken
 70
    13
 71
     2
 72
     2
 73
     0
 90
        0
 40
-0.6
 41
-30.0
 62
     5
 63
     7
 74
     1
 91
        4
 64
     7
 65
   257
 75
     1
175
     1
 42
1.0
 92
       12
 66
     7
 43
1.0
 76
     1
 77
     6
 78
     2
 67
     7
 79
     5
170
     0
171
     0
290
     0
174
     0
 93
        1
 44
0.0
173
     0
291
     1
 45
0.0
1001
ACAD
1000
AcDbSavedByObjectVersion
1070
     0
1000
AcDbSavedByObjectVersion
1070
     0
1000
AcDbSavedByObjectVersion
1070
     0
1000
AcDbSavedByObjectVersion
1070
     0
1000
AcDbSavedByObjectVersion
1070
     0
  0
DICTIONARYVAR
  5
6105
102
{ACAD_REACTORS
330
6102
102
}
330
6102
100
DictionaryVariables
280
     0
  1
1:1
  0
DICTIONARYVAR
  5
6104
102
{ACAD_REACTORS
330
6102
102
}
330
6102
100
DictionaryVariables
280
     0
  1
STANDARD
  0
DICTIONARYVAR
  5
6103
102
{ACAD_REACTORS
330
6102
102
}
330
6102
100
DictionaryVariables
280
     0
  1
STANDARD
  0
DICTIONARYVAR
  5
6108
102
{ACAD_REACTORS
330
6102
102
}
330
6102
100
DictionaryVariables
280
     0
  1
1
  0
DICTIONARYVAR
  5
6107
102
{ACAD_REACTORS
330
6102
102
}
330
6102
100
DictionaryVariables
280
     0
  1
0
  0
DICTIONARYVAR
  5
6106
102
{ACAD_REACTORS
330
6102
102
}
330
6102
100
DictionaryVariables
280
     0
  1
127
  0
VLO-VL
  5
60F3
102
{ACAD_REACTORS
330
60F2
102
}
330
60F2
100
vlo_VL
 90
   -64512
 91
       12
 92
        1
 40
2.5
300
(&VLO-R . 0)
  0
DICTIONARY
  5
5F14
330
5F13
100
AcDbDictionary
280
     1
281
     1
  3
ACAD_XREC_ROUNDTRIP
360
74C7
  3
BUMPTILE
360
5F16
  3
DIFFUSETILE
360
5F15
  3
OPACITYTILE
360
5F19
  3
REFLECTIONTILE
360
5F18
  3
REFRACTIONTILE
360
5F1A
  3
SPECULARTILE
360
5F17
  0
DICTIONARY
  5
5F0C
330
5F0B
100
AcDbDictionary
280
     1
281
     1
  3
ACAD_XREC_ROUNDTRIP
360
74C6
  3
BUMPTILE
360
5F0E
  3
DIFFUSETILE
360
5F0D
  3
OPACITYTILE
360
5F11
  3
REFLECTIONTILE
360
5F10
  3
REFRACTIONTILE
360
5F12
  3
SPECULARTILE
360
5F0F
  0
DICTIONARY
  5
5F1C
330
5F1B
100
AcDbDictionary
280
     1
281
     1
  3
ACAD_XREC_ROUNDTRIP
360
74C8
  3
BUMPTILE
360
5F1E
  3
DIFFUSETILE
360
5F1D
  3
OPACITYTILE
360
5F21
  3
REFLECTIONTILE
360
5F20
  3
REFRACTIONTILE
360
5F22
  3
SPECULARTILE
360
5F1F
  0
DICTIONARY
  5
74C2
330
5F66
100
AcDbDictionary
280
     1
281
     1
  3
ACAD_ROUNDTRIP_2008_TABLESTYLE_CELLSTYLEMAP
360
79DB
  3
ACAD_XREC_ROUNDTRIP
360
7AF7
  0
XRECORD
  5
74C7
102
{ACAD_REACTORS
330
5F14
102
}
330
5F14
100
AcDbXrecord
280
     1
102
MATERIAL
148
0.0
149
0.0
149
0.0
 93
        0
 94
       63
282
     0
 72
     0
 77
     0
171
     0
175
     0
179
     0
273
     0
  0
XRECORD
  5
5F16
102
{ACAD_REACTORS
330
5F14
102
}
330
5F14
100
AcDbXrecord
280
     1
270
     1
271
     1
  0
XRECORD
  5
5F15
102
{ACAD_REACTORS
330
5F14
102
}
330
5F14
100
AcDbXrecord
280
     1
270
     1
271
     1
  0
XRECORD
  5
5F19
102
{ACAD_REACTORS
330
5F14
102
}
330
5F14
100
AcDbXrecord
280
     1
270
     1
271
     1
  0
XRECORD
  5
5F18
102
{ACAD_REACTORS
330
5F14
102
}
330
5F14
100
AcDbXrecord
280
     1
270
     1
271
     1
  0
XRECORD
  5
5F1A
102
{ACAD_REACTORS
330
5F14
102
}
330
5F14
100
AcDbXrecord
280
     1
270
     1
271
     1
  0
XRECORD
  5
5F17
102
{ACAD_REACTORS
330
5F14
102
}
330
5F14
100
AcDbXrecord
280
     1
270
     1
271
     1
  0
XRECORD
  5
74C6
102
{ACAD_REACTORS
330
5F0C
102
}
330
5F0C
100
AcDbXrecord
280
     1
102
MATERIAL
148
0.0
149
0.0
149
0.0
 93
        0
 94
       63
282
     0
 72
     0
 77
     0
171
     0
175
     0
179
     0
273
     0
  0
XRECORD
  5
5F0E
102
{ACAD_REACTORS
330
5F0C
102
}
330
5F0C
100
AcDbXrecord
280
     1
270
     1
271
     1
  0
XRECORD
  5
5F0D
102
{ACAD_REACTORS
330
5F0C
102
}
330
5F0C
100
AcDbXrecord
280
     1
270
     1
271
     1
  0
XRECORD
  5
5F11
102
{ACAD_REACTORS
330
5F0C
102
}
330
5F0C
100
AcDbXrecord
280
     1
270
     1
271
     1
  0
XRECORD
  5
5F10
102
{ACAD_REACTORS
330
5F0C
102
}
330
5F0C
100
AcDbXrecord
280
     1
270
     1
271
     1
  0
XRECORD
  5
5F12
102
{ACAD_REACTORS
330
5F0C
102
}
330
5F0C
100
AcDbXrecord
280
     1
270
     1
271
     1
  0
XRECORD
  5
5F0F
102
{ACAD_REACTORS
330
5F0C
102
}
330
5F0C
100
AcDbXrecord
280
     1
270
     1
271
     1
  0
XRECORD
  5
74C8
102
{ACAD_REACTORS
330
5F1C
102
}
330
5F1C
100
AcDbXrecord
280
     1
102
MATERIAL
148
0.0
149
0.0
149
0.0
 93
        0
 94
       63
282
     0
 72
     0
 77
     0
171
     0
175
     0
179
     0
273
     0
  0
XRECORD
  5
5F1E
102
{ACAD_REACTORS
330
5F1C
102
}
330
5F1C
100
AcDbXrecord
280
     1
270
     1
271
     1
  0
XRECORD
  5
5F1D
102
{ACAD_REACTORS
330
5F1C
102
}
330
5F1C
100
AcDbXrecord
280
     1
270
     1
271
     1
  0
XRECORD
  5
5F21
102
{ACAD_REACTORS
330
5F1C
102
}
330
5F1C
100
AcDbXrecord
280
     1
270
     1
271
     1
  0
XRECORD
  5
5F20
102
{ACAD_REACTORS
330
5F1C
102
}
330
5F1C
100
AcDbXrecord
280
     1
270
     1
271
     1
  0
XRECORD
  5
5F22
102
{ACAD_REACTORS
330
5F1C
102
}
330
5F1C
100
AcDbXrecord
280
     1
270
     1
271
     1
  0
XRECORD
  5
5F1F
102
{ACAD_REACTORS
330
5F1C
102
}
330
5F1C
100
AcDbXrecord
280
     1
270
     1
271
     1
  0
ACAD_PROXY_OBJECT
  5
79DB
102
{ACAD_REACTORS
330
74C2
102
}
330
74C2
100
AcDbProxyObject
 90
      499
 91
      508
 95
  1310743
 70
     1
100
AcDbCellStyleMap
 90
        3
300
CELLSTYLE
  1
TABLEFORMAT_BEGIN
 90
        5
170
     1
 91
        0
 92
    32768
 62
   257
 93
        1
300
CONTENTFORMAT
  1
CONTENTFORMAT_BEGIN
 90
        0
 91
        0
 92
      512
 93
        0
300

 40
0.0
140
1.0
 94
        5
 62
     0
340
5F57
144
0.25
309
CONTENTFORMAT_END
171
     1
301
MARGIN
  1
CELLMARGIN_BEGIN
 40
0.06
 40
0.06
 40
0.06
 40
0.06
 40
0.18
 40
0.18
309
CELLMARGIN_END
 94
        6
 95
        1
302
GRIDFORMAT
  1
GRIDFORMAT_BEGIN
 90
        0
 91
        1
 62
     0
 92
       -2
340
0
 93
        0
 40
0.045
309
GRIDFORMAT_END
 95
        2
302
GRIDFORMAT
  1
GRIDFORMAT_BEGIN
 90
        0
 91
        1
 62
     0
 92
       -2
340
0
 93
        0
 40
0.045
309
GRIDFORMAT_END
 95
        4
302
GRIDFORMAT
  1
GRIDFORMAT_BEGIN
 90
        0
 91
        1
 62
     0
 92
       -2
340
0
 93
        0
 40
0.045
309
GRIDFORMAT_END
 95
        8
302
GRIDFORMAT
  1
GRIDFORMAT_BEGIN
 90
        0
 91
        1
 62
     0
 92
       -2
340
0
 93
        0
 40
0.045
309
GRIDFORMAT_END
 95
       16
302
GRIDFORMAT
  1
GRIDFORMAT_BEGIN
 90
        0
 91
        1
 62
     0
 92
       -2
340
0
 93
        0
 40
0.045
309
GRIDFORMAT_END
 95
       32
302
GRIDFORMAT
  1
GRIDFORMAT_BEGIN
 90
        0
 91
        1
 62
     0
 92
       -2
340
0
 93
        0
 40
0.045
309
GRIDFORMAT_END
309
TABLEFORMAT_END
  1
CELLSTYLE_BEGIN
 90
        1
 91
        1
300
_TITLE
309
CELLSTYLE_END
300
CELLSTYLE
  1
TABLEFORMAT_BEGIN
 90
        5
170
     1
 91
        0
 92
        0
 62
   257
 93
        1
300
CONTENTFORMAT
  1
CONTENTFORMAT_BEGIN
 90
        0
 91
        0
 92
      512
 93
        0
300

 40
0.0
140
1.0
 94
        5
 62
     0
340
5F57
144
0.18
309
CONTENTFORMAT_END
171
     1
301
MARGIN
  1
CELLMARGIN_BEGIN
 40
0.06
 40
0.06
 40
0.06
 40
0.06
 40
0.18
 40
0.18
309
CELLMARGIN_END
 94
        6
 95
        1
302
GRIDFORMAT
  1
GRIDFORMAT_BEGIN
 90
        0
 91
        1
 62
     0
 92
       -2
340
0
 93
        0
 40
0.045
309
GRIDFORMAT_END
 95
        2
302
GRIDFORMAT
  1
GRIDFORMAT_BEGIN
 90
        0
 91
        1
 62
     0
 92
       -2
340
0
 93
        0
 40
0.045
309
GRIDFORMAT_END
 95
        4
302
GRIDFORMAT
  1
GRIDFORMAT_BEGIN
 90
        0
 91
        1
 62
     0
 92
       -2
340
0
 93
        0
 40
0.045
309
GRIDFORMAT_END
 95
        8
302
GRIDFORMAT
  1
GRIDFORMAT_BEGIN
 90
        0
 91
        1
 62
     0
 92
       -2
340
0
 93
        0
 40
0.045
309
GRIDFORMAT_END
 95
       16
302
GRIDFORMAT
  1
GRIDFORMAT_BEGIN
 90
        0
 91
        1
 62
     0
 92
       -2
340
0
 93
        0
 40
0.045
309
GRIDFORMAT_END
 95
       32
302
GRIDFORMAT
  1
GRIDFORMAT_BEGIN
 90
        0
 91
        1
 62
     0
 92
       -2
340
0
 93
        0
 40
0.045
309
GRIDFORMAT_END
309
TABLEFORMAT_END
  1
CELLSTYLE_BEGIN
 90
        2
 91
        1
300
_HEADER
309
CELLSTYLE_END
300
CELLSTYLE
  1
TABLEFORMAT_BEGIN
 90
        5
170
     1
 91
        0
 92
        0
 62
   257
 93
        1
300
CONTENTFORMAT
  1
CONTENTFORMAT_BEGIN
 90
        0
 91
        0
 92
      512
 93
        0
300

 40
0.0
140
1.0
 94
        2
 62
     0
340
5F57
144
0.18
309
CONTENTFORMAT_END
171
     1
301
MARGIN
  1
CELLMARGIN_BEGIN
 40
0.06
 40
0.06
 40
0.06
 40
0.06
 40
0.18
 40
0.18
309
CELLMARGIN_END
 94
        6
 95
        1
302
GRIDFORMAT
  1
GRIDFORMAT_BEGIN
 90
        0
 91
        1
 62
     0
 92
       -2
340
0
 93
        0
 40
0.045
309
GRIDFORMAT_END
 95
        2
302
GRIDFORMAT
  1
GRIDFORMAT_BEGIN
 90
        0
 91
        1
 62
     0
 92
       -2
340
0
 93
        0
 40
0.045
309
GRIDFORMAT_END
 95
        4
302
GRIDFORMAT
  1
GRIDFORMAT_BEGIN
 90
        0
 91
        1
 62
     0
 92
       -2
340
0
 93
        0
 40
0.045
309
GRIDFORMAT_END
 95
        8
302
GRIDFORMAT
  1
GRIDFORMAT_BEGIN
 90
        0
 91
        1
 62
     0
 92
       -2
340
0
 93
        0
 40
0.045
309
GRIDFORMAT_END
 95
       16
302
GRIDFORMAT
  1
GRIDFORMAT_BEGIN
 90
        0
 91
        1
 62
     0
 92
       -2
340
0
 93
        0
 40
0.045
309
GRIDFORMAT_END
 95
       32
302
GRIDFORMAT
  1
GRIDFORMAT_BEGIN
 90
        0
 91
        1
 62
     0
 92
       -2
340
0
 93
        0
 40
0.045
309
GRIDFORMAT_END
309
TABLEFORMAT_END
  1
CELLSTYLE_BEGIN
 90
        3
 91
        2
300
_DATA
309
CELLSTYLE_END
  0
XRECORD
  5
7AF7
102
{ACAD_REACTORS
330
74C2
102
}
330
74C2
100
AcDbXrecord
280
     1
102
ACAD_ROUNDTRIP_PRE2007_TABLESTYLE
 90
      512
 91
        0
  1

 92
      512
 93
        0
  2

 94
      512
 95
        0
  3

  0
ENDSEC
  0
EOF
